Классический форум-трекер
canvas not supported
Нас вместе: 4 068 753

Dororo / Дороро [2019, TV, 9 из 24] WEB-DL 1080p Rus


 
 
RSS
Начать новую тему   Ответить на тему    Торрент-трекер NNM-Club -> Аниме с озвучкой -> Онгоинги с озвучкой
Автор Сообщение
Ampho_DnB ®
RG Аниме
Uploader 100+
 
Стаж: 7 лет 2 мес.
Сообщений: 3435
Ratio: 219,174
Поблагодарили: 80848
100%
Откуда: дует?
roody.gif
Dororo / Дороро
Жанр: приключения, история, сверхъестественное
Тип: TV-сериал
Продолжительность: 9 из 24 эпизодов по 25 минут
Выпуск: c 07.01.2019
Автор: Тэдзука Осаму
Снято по манге: Dororo
Режиссер: Фурухаси Кадзухиро
Производство: MAPPA, Tezuka Productions
Информационные ссылки: AniDB || World Art || MAL || ANN
Релиз подготовлен студией Kansai
  • Тип озвучки: Многоголосая, закадровая

Описание:
В стране царит смута, и один из генералов жаждет во что бы то ни стало одержать победу в решающей битве, которая ни много ни мало сулит ему трон всей страны. Для этого он решается на страшный грех и заключает сделку с двенадцатью демонами: те помогают ему выиграть бой, а он за это отдаёт каждому из них одну из частей тела своего новорожденного сына. Обречённый на гибель мальчик, тем не менее, выживает благодаря помощи доктора, создавшего для него протезы-оружие. Преданный собственным отцом, юноша ничего так не желает, как отомстить родителю, но для этого ему сперва необходимо убить каждого демона и вернуть отнятые части тела, по одной за раз. На своём пути охоты и истребления демонов молодой человек встречает сироту Дороро, который утверждает, что является величайшим вором Японии. Объединившись, они вместе отправляются в трудный путь, полный опасностей и приключений.
Качество: WEB-DLRip | Энкод: HorribleSubs
Язык озвучки: Японский и Русский
Формат: MKV
Видео: x264, 1920x1080, ~3 341 kbps, 23.976 fps
Аудио: AAC, 125 kbps, 48.0 kHz, 2 ch
Аудио: AAC, 192 kbps, 48.0 kHz, 2 ch
01. The Story of Daigo
02. The Story of Bandai
03. The Story of Jukai
04. The Story of the Cursed Sword
05. The Story of the Moriko Song, Part 1
06. The Story of the Moriko Song, Part 2
07. The Story of the Jorogumo Silk Spider
08. The Story of Saru
09. The Story of the Mercilessness
General
Unique ID : 288284827649115653545319289411055618196 (0xD8E1A3619CBB7ED8B00F3C338B878894)
Complete name : Dororo [KANSAI]\Dororo - 01 [1080p].mkv
Format : Matroska
Format version : Version 4
File size : 628 MiB
Duration : 23 min 59 s
Overall bit rate : 3 658 kb/s
Encoded date : UTC 2019-02-10 17:40:48
Writing application : mkvmerge v31.0.0 ('Dolores In A Shoestand') 64-bit
Writing library : libebml v1.3.6 + libmatroska v1.4.9

Video
ID : 1
Format : AVC
Format/Info : Advanced Video Codec
Format profile : High@L4
Format settings : CABAC / 4 Ref Frames
Format settings, CABAC : Yes
Format settings, ReFrames : 4 frames
Codec ID : V_MPEG4/ISO/AVC
Duration : 23 min 59 s
Bit rate : 3 341 kb/s
Width : 1 920 pixels
Height : 1 080 pixels
Display aspect ratio : 16:9
Frame rate mode : Constant
Frame rate : 23.976 (24000/1001) FPS
Color space : YUV
Chroma subsampling : 4:2:0
Bit depth : 8 bits
Scan type : Progressive
Bits/(Pixel*Frame) : 0.067
Stream size : 573 MiB (91%)
Default : Yes
Forced : No
Color range : Limited
Color primaries : BT.709
Transfer characteristics : BT.709
Matrix coefficients : BT.709

Audio #1
ID : 2
Format : AAC LC
Format/Info : Advanced Audio Codec Low Complexity
Codec ID : A_AAC-2
Duration : 23 min 59 s
Bit rate : 192 kb/s
Channel(s) : 2 channels
Channel layout : L R
Sampling rate : 48.0 kHz
Frame rate : 46.875 FPS (1024 SPF)
Compression mode : Lossy
Stream size : 32.5 MiB (5%)
Language : Russian
Default : Yes
Forced : No

Audio #2
ID : 3
Format : AAC LC
Format/Info : Advanced Audio Codec Low Complexity
Codec ID : A_AAC-2
Duration : 23 min 59 s
Bit rate : 125 kb/s
Channel(s) : 2 channels
Channel layout : L R
Sampling rate : 48.0 kHz
Frame rate : 46.875 FPS (1024 SPF)
Compression mode : Lossy
Stream size : 21.5 MiB (3%)
Language : Japanese
Default : No
Forced : No


Время раздачи: До первых сидов
[NNM-Club.me]_Dororo [KANSAI].torrent
 Торрент:   Зарегистрирован
 
Зарегистрируйтесь и скачайте торрент!
26,4 KB

Примагнититься
 Зарегистрирован:   14 Мар 2019 23:33:31
 Размер:   5,12 GB  (
 Рейтинг:   4,4 (Голосов: 14)
 Поблагодарили:   42
 Проверка:   Оформление проверено модератором 15 Мар 2019 21:25:54
Как cкачать  ·  Как раздать  ·  Правильно оформить  ·  Поднять ратио!  
RazDvaTre
Стаж: 8 лет 7 мес.
Сообщений: 919
Ratio: 2,591
100%
Откуда: New Васюки
pirates.png
Ampho_DnB писал(а): Перейти к сообщению

... за это отдаёт каждому из них одну из частей тела своего новорожденного сына.


Эм...странны дела ваши, господа сценаристы. руки, ноги - 4 части, 2 глаза, а остальное ЧТО? Демонов то двенадцать. Кому то из демонов особо повезло и достался половой орган?-)))
Archaon
Стаж: 9 лет 3 мес.
Сообщений: 100
Ratio: 3,272
100%
Откуда: Харьков
ukraine.gif
так и не понял сюжет. За что мстит отцу? Если бы не было отца, не было бы и героя...

опять пытаются шизофрению героя выразить в позитивном свете. живём в каком-то зазеркалье, когда всякие ублюдки рисуются героями.
roman-x748
Стаж: 8 лет 10 мес.
Сообщений: 31
Ratio: 17,274
9.18%
russia.gif
Archaon писал(а): Перейти к сообщению
так и не понял сюжет. За что мстит отцу? Если бы не было отца, не было бы и героя...

опять пытаются шизофрению героя выразить в позитивном свете. живём в каком-то зазеркалье, когда всякие ублюдки рисуются героями.

За это
Вы наверно и дочь свою насилуете,ведь она вам должна, ведь без вас и ее не было бы
Ampho_DnB ®
RG Аниме
Uploader 100+
 
Стаж: 7 лет 2 мес.
Сообщений: 3435
Ratio: 219,174
Поблагодарили: 80848
100%
Откуда: дует?
roody.gif
Торрент обновлен. Добавлена 5 серия.
Рикошет
 
Стаж: 11 лет 3 мес.
Сообщений: 376
Ratio: 5,111
Поблагодарили: 90
50.62%
Откуда: Из деревни
witch.png
Archaon писал(а): Перейти к сообщению
так и не понял сюжет. За что мстит отцу? Если бы не было отца, не было бы и героя...

опять пытаются шизофрению героя выразить в позитивном свете. живём в каком-то зазеркалье, когда всякие ублюдки рисуются героями.

Демоны видимо твои глаза вместе с мозгом забрали.
Ampho_DnB ®
RG Аниме
Uploader 100+
 
Стаж: 7 лет 2 мес.
Сообщений: 3435
Ratio: 219,174
Поблагодарили: 80848
100%
Откуда: дует?
roody.gif
Торрент обновлен. Добавлена 6 серия.
Ampho_DnB ®
RG Аниме
Uploader 100+
 
Стаж: 7 лет 2 мес.
Сообщений: 3435
Ratio: 219,174
Поблагодарили: 80848
100%
Откуда: дует?
roody.gif
И тут внезапно...
Торрент обновлен. Добавлена 7 серия.
Ampho_DnB ®
RG Аниме
Uploader 100+
 
Стаж: 7 лет 2 мес.
Сообщений: 3435
Ratio: 219,174
Поблагодарили: 80848
100%
Откуда: дует?
roody.gif
Торрент обновлен. Добавлена 8 серия.
4avezzz
Стаж: 8 лет 4 мес.
Сообщений: 196
Ratio: 139,24
100%
jamaica.gif
Мельчаем! В оригинале демонов, а соответственно, и потерянных частей тела было больше !!!
Ampho_DnB ®
RG Аниме
Uploader 100+
 
Стаж: 7 лет 2 мес.
Сообщений: 3435
Ratio: 219,174
Поблагодарили: 80848
100%
Откуда: дует?
roody.gif
Торрент обновлен. Добавлена 9 серия.
Показать сообщения:   
Начать новую тему   Ответить на тему    Торрент-трекер NNM-Club -> Аниме с озвучкой -> Онгоинги с озвучкой Часовой пояс: GMT + 3
Страница 1 из 1