Классический форум-трекер
canvas not supported
Нас вместе: 4 068 741

Yakusoku no Neverland / The Promised Neverland / Обещанный Неверленд [2019, TV, 8 из 12] WEB-DL 720p Rus


 
 
RSS
Начать новую тему   Ответить на тему    Торрент-трекер NNM-Club -> Аниме с озвучкой -> Онгоинги с озвучкой
Автор Сообщение
Ampho_DnB ®
RG Аниме
Uploader 100+
 
Стаж: 7 лет 2 мес.
Сообщений: 3435
Ratio: 219,172
Поблагодарили: 80848
100%
Откуда: дует?
roody.gif
Yakusoku no Neverland / The Promised Neverland / Обещанный Неверленд
Жанр: приключения, фантастика, драма
Тип: TV-сериал
Продолжительность: 8 из 12 эпизодов по 25 минут
Выпуск: c 11.01.2019 по 29.03.2019
Автор: Сирай Каю
Снято по манге: Yakusoku no Neverland
Режиссер: Камбэ Мамору
Производство: CloverWorks
Информационные ссылки: AniDB || World Art || MAL || ANN
Релиз подготовлен студией Kansai
  • Тип озвучки: Многоголосая, закадровая

Описание:
В приюте «Грейс Филд» под чутким взором «Матери» живут трое подростков — Эмма, Норман и Рэй. Окружённые младшими братьями и сёстрами они не знают бед и невзгод. Но в одну ночь их идиллия оборачивается кошмаром. Они считали приют раем. Но теперь, когда они знают правду, у них остался один выход: сбежать или... умереть!
Качество: WEB-DLRip | Энкод: HorribleSubs
Язык озвучки: Японский и Русский
Формат: MKV
Видео: x264, 1280x720, ~1 391 kbps, 23.976 fps
Аудио: AAC, 128 kbps, 44.1 kHz, 2 ch
Аудио: AAC, 192 kbps, 48.0 kHz, 2 ch
01. 121045
02. 131045
03. 181045
04. 291045
05. 301045
06. 311045
07. 011145
08. 021145
General
Unique ID : 265278748268054354705241042657239878676 (0xC792D417EA05A169E0DEF224B223CC14)
Complete name : Yakusoku no Neverland [KANSAI]\Yakusoku no Neverland - 01 [720p].mkv
Format : Matroska
Format version : Version 4
File size : 281 MiB
Duration : 22 min 55 s
Overall bit rate : 1 711 kb/s
Encoded date : UTC 2019-02-07 10:19:12
Writing application : mkvmerge v30.1.0 ('Forever And More') 64-bit
Writing library : libebml v1.3.6 + libmatroska v1.4.9

Video
ID : 1
Format : AVC
Format/Info : Advanced Video Codec
Format profile : High@L4
Format settings : CABAC / 6 Ref Frames
Format settings, CABAC : Yes
Format settings, ReFrames : 6 frames
Codec ID : V_MPEG4/ISO/AVC
Duration : 22 min 54 s
Bit rate : 1 391 kb/s
Width : 1 280 pixels
Height : 720 pixels
Display aspect ratio : 16:9
Frame rate mode : Constant
Frame rate : 23.976 (24000/1001) FPS
Color space : YUV
Chroma subsampling : 4:2:0
Bit depth : 8 bits
Scan type : Progressive
Bits/(Pixel*Frame) : 0.063
Stream size : 228 MiB (81%)
Writing library : x264 core 142
Encoding settings : cabac=1 / ref=6 / deblock=1:1:1 / analyse=0x3:0x113 / me=umh / subme=8 / psy=1 / psy_rd=0.40:0.00 / mixed_ref=1 / me_range=16 / chroma_me=1 / trellis=1 / 8x8dct=1 / cqm=0 / deadzone=21,11 / fast_pskip=1 / chroma_qp_offset=-2 / threads=10 / lookahead_threads=1 / sliced_threads=0 / nr=0 / decimate=1 / interlaced=0 / bluray_compat=0 / constrained_intra=0 / bframes=3 / b_pyramid=2 / b_adapt=2 / b_bias=0 / direct=3 / weightb=1 / open_gop=0 / weightp=2 / keyint=48 / keyint_min=25 / scenecut=0 / intra_refresh=0 / rc_lookahead=48 / rc=crf / mbtree=1 / crf=15.0 / qcomp=0.60 / qpmin=0 / qpmax=69 / qpstep=4 / vbv_maxrate=4000 / vbv_bufsize=6000 / crf_max=0.0 / nal_hrd=none / filler=0 / ip_ratio=1.40 / aq=1:0.60
Default : Yes
Forced : No

Audio #1
ID : 2
Format : AAC LC
Format/Info : Advanced Audio Codec Low Complexity
Codec ID : A_AAC-2
Duration : 22 min 55 s
Bit rate : 192 kb/s
Channel(s) : 2 channels
Channel layout : L R
Sampling rate : 48.0 kHz
Frame rate : 46.875 FPS (1024 SPF)
Compression mode : Lossy
Delay relative to video : -83 ms
Stream size : 31.0 MiB (11%)
Language : Russian
Default : Yes
Forced : No

Audio #2
ID : 3
Format : AAC LC
Format/Info : Advanced Audio Codec Low Complexity
Codec ID : A_AAC-2
Duration : 22 min 55 s
Bit rate : 128 kb/s
Channel(s) : 2 channels
Channel layout : L R
Sampling rate : 44.1 kHz
Frame rate : 43.066 FPS (1024 SPF)
Compression mode : Lossy
Delay relative to video : -83 ms
Stream size : 21.0 MiB (7%)
Language : Japanese
Default : No
Forced : No


Время раздачи: До первых сидов
[NNM-Club.me]_Yakusoku no Neverland [KANSAI].torrent
 Торрент:   Зарегистрирован
 
Зарегистрируйтесь и скачайте торрент!
19,4 KB

Примагнититься
 Зарегистрирован:   14 Мар 2019 23:39:15
 Размер:   1,85 GB  (
 Рейтинг:    (Голосов: 9)
 Поблагодарили:   19
 Проверка:   Оформление проверено модератором 15 Мар 2019 21:25:21
Как cкачать  ·  Как раздать  ·  Правильно оформить  ·  Поднять ратио!  
NIK220V
RG Аниме
Модератор Аниме Uploader 100+
 
Стаж: 5 лет 9 мес.
Сообщений: 528
Ratio: 1M
Раздал: 262,9 TB
Поблагодарили: 15822
100%
Откуда: Бешенный шабаш
witch.png
Судя по MediaInfo и описанию субтитров здесь нет, поэтому raw из названия топика я убрал.

_________________
Здесь могла быть подпись.
Но я просто скажу, что люблю аниме.
Ampho_DnB ®
RG Аниме
Uploader 100+
 
Стаж: 7 лет 2 мес.
Сообщений: 3435
Ratio: 219,172
Поблагодарили: 80848
100%
Откуда: дует?
roody.gif
NIK220V писал(а): Перейти к сообщению
Судя по MediaInfo и описанию субтитров здесь нет, поэтому raw из названия топика я убрал.

Хорошо.
Ampho_DnB ®
RG Аниме
Uploader 100+
 
Стаж: 7 лет 2 мес.
Сообщений: 3435
Ratio: 219,172
Поблагодарили: 80848
100%
Откуда: дует?
roody.gif
Торрент обновлен. Добавлены 4 и 5 серии.
Ampho_DnB ®
RG Аниме
Uploader 100+
 
Стаж: 7 лет 2 мес.
Сообщений: 3435
Ratio: 219,172
Поблагодарили: 80848
100%
Откуда: дует?
roody.gif
Торрент обновлен. Добавлена 6 серия.
Ampho_DnB ®
RG Аниме
Uploader 100+
 
Стаж: 7 лет 2 мес.
Сообщений: 3435
Ratio: 219,172
Поблагодарили: 80848
100%
Откуда: дует?
roody.gif
Торрент обновлен. Добавлена 7 серия.
13i
Стаж: 8 лет
Сообщений: 29
Ratio: 8,393
1.37%
russia.gif
Судя по главной картинке - их там откармливают на убой...
Ampho_DnB ®
RG Аниме
Uploader 100+
 
Стаж: 7 лет 2 мес.
Сообщений: 3435
Ratio: 219,172
Поблагодарили: 80848
100%
Откуда: дует?
roody.gif
Торрент обновлен. Добавлена 8 серия.
Показать сообщения:   
Начать новую тему   Ответить на тему    Торрент-трекер NNM-Club -> Аниме с озвучкой -> Онгоинги с озвучкой Часовой пояс: GMT + 3
Страница 1 из 1