Классический форум-трекер
canvas not supported
Нас вместе: 4 073 313
Loading...

Tensei Shitara Slime Datta Ken / That Time I Got Reincarnated as a Slime / О моём перерождении в слизь [2018, TV, 25 ep] WEB-DL 1080p Rus


 
 
RSS
Начать новую тему   Ответить на тему    Торрент-трекер NNM-Club -> Аниме с озвучкой -> Аниме с озвучкой (FullHD)
Автор Сообщение
Ampho_DnB ®
RG Аниме
Uploader 100+
 
Стаж: 7 лет 4 мес.
Сообщений: 3526
Ratio: 228,306
Поблагодарили: 81977
100%
Откуда: дует?
roody.gif
Tensei Shitara Slime Datta Ken / That Time I Got Reincarnated as a Slime
О моём перерождении в слизь

Жанр: приключения, комедия, фэнтези
Тип: TV-сериал
Продолжительность: 25 эпизодов по 25 минут
Выпуск: c 02.10.2018 по 25.03.2018
Автор: Каваками Тайки
Снято по ранобэ: Tensei Shitara Slime Datta Ken
Режиссер: Кикути Ясухито
Производство: 8bit
Информационные ссылки: AniDB || World Art || MAL || ANN
Релиз подготовлен группой AniLibria
  • Тип озвучки: Многоголосая, закадровая

Описание:
Миками Сатору — 37-летний одинокий сотрудник строительной компании, не слишком довольный своей рутинной жизнью, пока однажды в оной не случается крутой поворот. Получив удар ножом в спину от грабителя, перед смертью Миками слышит странный голос, а после его разум оказывается в теле слепого слизня в другом мире, напоминающем своим устройством ролевую игру. Встретив дракона по имени Велдора и став его другом, протагонист обретает новое имя — Римуру Тэмпест, и с этого момента начинаются его невероятные приключения в новом обличье.
Качество: WEB-DLRip | Энкод: Erai-raws
Язык озвучки: Японский и Русский
Формат: MKV
Видео: x264, 1920x1080, ~5 968 kbps, 23.976 fps
Аудио: AAC, 128 kbps, 44.1 kHz, 2 ch
Аудио: AAC, 192 kbps, 48.0 kHz, 2 ch
01. The Storm Dragon, Veldora
02. Meeting the Goblins
03. Battle at the Goblin Village
04. In the Kingdom of the Dwarves
05. Hero King, Gazel Dwargo
06. Shizu
07. Conqueror of Flames
08. Inherited Will
09. Attack of the Ogres
10. The Orc Lord
11. Gabiru Is Here!
12. The Gears Spin Out of Control
13. The Great Clash
14. The One Who Devours All
15. The Jura Forest Alliance
16. Demon Lord Milim Attacks
17. The Gathering
18. Evil Creeps Closer
19. Charybdis
20. Yuuki Kagurazaka
21. Shizu-san`s Students
22. Conquering the Labyrinth
23. Saved Souls
24. Extra: Black and the Mask
25. Tales: Veldora`s Journal
General
Unique ID : 220508773992806546486464216294328675038 (0xA5E471F0FA6EDB775FFA916E5980AADE)
Complete name : Tensei Shitara Slime Datta Ken [AniLibria]\Tensei shitara Slime Datta Ken - 01 [1080p].mkv
Format : Matroska
Format version : Version 4
File size : 1.04 GiB
Duration : 23 min 42 s
Overall bit rate : 6 288 kb/s
Encoded date : UTC 2019-01-15 16:48:00
Writing application : mkvmerge v30.1.0 ('Forever And More') 64-bit
Writing library : libebml v1.3.6 + libmatroska v1.4.9

Video
ID : 3
Format : AVC
Format/Info : Advanced Video Codec
Format profile : High@L4
Format settings : CABAC / 4 Ref Frames
Format settings, CABAC : Yes
Format settings, ReFrames : 4 frames
Codec ID : V_MPEG4/ISO/AVC
Duration : 23 min 42 s
Bit rate : 5 968 kb/s
Width : 1 920 pixels
Height : 1 080 pixels
Display aspect ratio : 16:9
Frame rate mode : Constant
Frame rate : 23.976 (24000/1001) FPS
Color space : YUV
Chroma subsampling : 4:2:0
Bit depth : 8 bits
Scan type : Progressive
Bits/(Pixel*Frame) : 0.120
Stream size : 1 012 MiB (95%)
Writing library : x264 core 142
Encoding settings : cabac=1 / ref=4 / deblock=1:1:1 / analyse=0x3:0x113 / me=umh / subme=8 / psy=1 / psy_rd=0.40:0.00 / mixed_ref=1 / me_range=16 / chroma_me=1 / trellis=1 / 8x8dct=1 / cqm=0 / deadzone=21,11 / fast_pskip=1 / chroma_qp_offset=-2 / threads=12 / lookahead_threads=2 / sliced_threads=0 / nr=0 / decimate=1 / interlaced=0 / bluray_compat=0 / constrained_intra=0 / bframes=3 / b_pyramid=2 / b_adapt=2 / b_bias=0 / direct=3 / weightb=1 / open_gop=0 / weightp=2 / keyint=48 / keyint_min=25 / scenecut=0 / intra_refresh=0 / rc_lookahead=48 / rc=crf / mbtree=1 / crf=15.0 / qcomp=0.60 / qpmin=0 / qpmax=69 / qpstep=4 / vbv_maxrate=8000 / vbv_bufsize=12000 / crf_max=0.0 / nal_hrd=none / filler=0 / ip_ratio=1.40 / aq=1:0.60
Default : Yes
Forced : No

Audio #1
ID : 1
Format : AAC LC
Format/Info : Advanced Audio Codec Low Complexity
Codec ID : A_AAC-2
Duration : 23 min 42 s
Bit rate : 192 kb/s
Channel(s) : 2 channels
Channel layout : L R
Sampling rate : 48.0 kHz
Frame rate : 46.875 FPS (1024 SPF)
Compression mode : Lossy
Stream size : 32.1 MiB (3%)
Title : Silv & Hekomi & December & Malevich
Language : Russian
Default : Yes
Forced : No

Audio #2
ID : 2
Format : AAC LC
Format/Info : Advanced Audio Codec Low Complexity
Codec ID : A_AAC-2
Duration : 23 min 42 s
Bit rate : 128 kb/s
Channel(s) : 2 channels
Channel layout : L R
Sampling rate : 44.1 kHz
Frame rate : 43.066 FPS (1024 SPF)
Compression mode : Lossy
Stream size : 21.7 MiB (2%)
Title : Original
Language : Japanese
Default : No
Forced : No


Время раздачи: До первых сидов
[NNM-Club.me]_Tensei Shitara Slime Datta Ken [AniLibria].torrent
 Торрент: Платиновая раздача  Зарегистрирован
 
Скачать


Примагнититься
 Зарегистрирован:   26 Мар 2019 20:30:14
 Размер:   22,7 GB  (
 Рейтинг:   4,5 (Голосов: 28)
 Поблагодарили:   90
 Проверка:   Оформление проверено модератором 26 Мар 2019 22:22:57
Как cкачать  ·  Как раздать  ·  Правильно оформить  ·  Поднять ратио!  
alexseed
Стаж: 8 лет 9 мес.
Сообщений: 136
Ratio: 18,231
9.09%
ukraine.gif
Несмотря на странное название и странноватую концепцию эта анима - топовый представитель жанра Isekai (ануму про попаданцев).

Рекомендую к просмотру.

_________________
-----------
nobody expects the spanish inquisition!
moonZlo
Стаж: 11 мес. 16 дней
Сообщений: 99
Ratio: 3,587
100%
Действительно, немного казуальное но всё же сюжет интересный)

_________________
hagen000
Стаж: 7 лет
Сообщений: 319
Ratio: 7,074
Раздал: 4,475 TB
100%
Откуда: Оттуда
ussr.gif
Спасибо.
10 серий посмотрел, создалось впечатление, что какое то очень детское аниме. Ну и этот прыгающий гайморит в главной роли воспринимается очень странно :плач:
hagen000
Стаж: 7 лет
Сообщений: 319
Ratio: 7,074
Раздал: 4,475 TB
100%
Откуда: Оттуда
ussr.gif
Это какой то п...ц в конце был, перемешали все в кучу, а последняя серия вообще отдельно [ничто] - пересказ предыдущих 24 серий! Для чего?

пс: отдельно по озвучке. Анилибрия не всегда отличалась качественными озвучками, но в этом аниме (да и в некоторых других) очень хорошая многоголоска (по подбору голосов). НО! Как даберы Анилибрии озвучивают подобное тут: вместо "отзовусь" озвучивают "отозвусь"! (23 серия) Даже слова такого нету в русском языке. У меня возникает впечатление, что и мозга у даберов тоже нету. 3 раза подобные косяки услышал за 25 серий (остальные мелочи в расчет не беру) и это они называют качеством?!
Показать сообщения:   
Начать новую тему   Ответить на тему    Торрент-трекер NNM-Club -> Аниме с озвучкой -> Аниме с озвучкой (FullHD) Часовой пояс: GMT + 3
Страница 1 из 1