Классический форум-трекер
canvas not supported
Нас вместе: 4 068 978

Девочка (2008) [SATRip]


 
 
RSS
Начать новую тему   Ответить на тему    Торрент-трекер NNM-Club -> Отечественное кино -> Отечественные Фильмы (HD*Rip/LQ, DVDRip, SATRip, VHSRip)
Автор Сообщение
holodget ®
Стаж: 11 лет 3 мес.
Сообщений: 95
Ratio: 8,033
Поблагодарили: 1233
0.34%
russia.gif
Девочка (2008) [SATRip]

Русское название: Девочка
Год выпуска: 2008
Жанр: Мелодрама

Описание фильма:
Закончив школу, Лена уходит из дома. Самостоятельная взрослая жизнь манит ее как мотылька огонь. Большие деньги и громкая слава кажутся вполне реальной целью, а новые знакомства с интересными людьми в ночных клубах - неплохим средством ее достижения. Но, увы, эти встречи заканчиваются вполне предсказуемо и трагично - наркотиками.Девочка попадает в тюрьму. Там ее подругами по несчастью становятся очень разные женщины. Среди заключенных - интеллигентная Арина, продавец Рая, детдомовка Оля. Все они оказались на нарах в силу разных причин - справедливо и нет, по чьей-то ошибке и по своей вине. Вскоре Лена понимает, что жизнь продолжается даже за тюремными стенами. И именно здесь она находит настоящую любовь.

Режиссер: Елена Николаева
Актеры:
Елена Николаева, Александр Лазарев - Mладший, Мария Порошина, Татьяна Догилева, Евдокия Германова, Валерий Баринов, Евгения Двитриева, Дарья Чаруша, Ольга Хохлова

Продолжительность: 02:08:47

Видеокодек: XviD
Битрейт видео: 796 Кбит/с
Размер кадра: 640x368
Качество видео: SATRip
Аудиокодек: MP3
Битрейт аудио: 256 Кбит/с
Общее
Полное имя : E:\Торренты\Реставрация фильмов\Devotschka.avi
Формат : AVI
Формат/Информация : Audio Video Interleave
Размер файла : 969 Мбайт
Продолжительность : 2 ч. 8 м.
Общий поток : 1052 Кбит/сек
Программа кодирования : VirtualDubMod 1.5.4.1 (build 2178/release)
Библиотека кодирования : VirtualDubMod build 2178/release

Видео
Идентификатор : 0
Формат : MPEG-4 Visual
Профиль формата : Advanced Simple@L5
Параметр BVOP формата : 1
Параметр QPel формата : Нет
Параметр GMC формата : Без точки перехода
Параметр матрицы формата : Выборочная
Идентификатор кодека : XVID
Идентификатор кодека/Подсказка : XviD
Продолжительность : 2 ч. 8 м.
Битрейт : 789 Кбит/сек
Ширина : 640 пикс.
Высота : 368 пикс.
Соотношение сторон : 16:9
Частота кадров : 25,000 кадр/сек
Цветовое пространство : YUV
Подвыборка цветности : 4:2:0
Битовая глубина : 8 бит
Тип развёртки : Прогрессивная
Метод сжатия : С потерями
Бит/(Пиксели*Кадры) : 0.134
Размер потока : 727 Мбайт (75%)
Библиотека кодирования : XviD 1.2.0.dev47 (UTC 2006-11-01)

Аудио
Идентификатор : 1
Формат : MPEG Audio
Версия формата : Version 1
Профиль формата : Layer 2
Идентификатор кодека : 50
Продолжительность : 2 ч. 8 м.
Вид битрейта : Постоянный
Битрейт : 256 Кбит/сек
Каналы : 2 канала
Частота : 48,0 КГц
Метод сжатия : С потерями
Размер потока : 236 Мбайт (24%)
Выравнивание : Соединение по промежуткам
Продолжительность промежутка : 80 мс. (2,00 видеокадра)
Время предзагрузки промежутка : 504 ms

Скриншоты:


Время раздачи: С 18:00 до 8:30

!!!Все релизы этого фильма в Клубе!!!
[NNM-Club.info] Devotschka.avi.torrent
 Торрент: Платиновая раздача  Зарегистрирован
 
Скачать


 Зарегистрирован:   25 Сен 2008 06:05:21
 Размер:   969 MB  (
 Рейтинг:   4,6 (Голосов: 23)
 Поблагодарили:   76
 Проверка:   Оформление проверено модератором 28 Сен 2008 14:02:45
Как cкачать  ·  Как раздать  ·  Правильно оформить  ·  Поднять ратио!  
Temptation
Стаж: 11 лет 2 мес.
Сообщений: 12
Ratio: 4,116
Поблагодарили: 4
100%
Отличный фильм! спасибо огромное!
taurus_ru
Стаж: 9 лет 11 мес.
Сообщений: 33
Ratio: 2,717
Поблагодарили: 171
witch.png
прошу, очень, вернуться на раздачу!
cut12
Покровитель талантов
Uploader 100+
 
Стаж: 8 лет 10 мес.
Сообщений: 646
Ratio: 445,565
Раздал: 145,7 TB
Поблагодарили: 5414
100%
Откуда: Карелия
russia.gif
Реставрация
ааааа123
Стаж: 8 лет 2 мес.
Сообщений: 14
Ratio: 21,255
100%
вернитесь на раздачу!!!! пожалуйста
Показать сообщения:   
Начать новую тему   Ответить на тему    Торрент-трекер NNM-Club -> Отечественное кино -> Отечественные Фильмы (HD*Rip/LQ, DVDRip, SATRip, VHSRip) Часовой пояс: GMT + 3
Страница 1 из 1