Интеллигентный торрент-трекер
canvas not supported
Нас вместе: 4 105 154

КВН 2014. Премьер Лига. 1-ая игра (19.07.2014) SATRip


 
 
RSS
Начать новую тему   Ответить на тему    Торрент-трекер NNM-Club -> Архив торрентов -> Архив Юмора
Автор Сообщение
ZoNoW ®
Модератор Видео
RG Releasers
 
Стаж: 7 лет 2 мес.
Сообщений: 7046
Ratio: 667K
Раздал: 80,1 TB
Поблагодарили: 3145788
100%
ussr.gif
КВН 2014. Премьер Лига. 1-ая игра (19.07.2014) SATRip
Режиссер / Телекомпания: Первый канал
Название: КВН 2014. Премьер Лига
Год выпуска: 2014
Жанр: Телепередача

Ведущий: Александр Масляков мл.

Описание:
Центральная «Премьер-лига» КВН является второй телевизионной лигой МС КВН и транслируется на Первом канале, она была открыта в 2003-ем году, ведущим Лиги является Александр Масляков младший, игры проходят в БКЗ «Академический» в Москве, редактируют лигу Михаил Гуликов (Запорожье — Кривой Рог — Транзит) и Валентин Иванов (ХАИ), им помогает Алексей Ляпичев (Незолотая молодёжь). В Премьер-лиге играют более молодые команды КВН, в основном чемпионы и финалисты разных официальных лиг. В 2004 году было решено, что чемпион Первой лиги будет попадать в телевизионную лигу, то есть в Высшую или Премьер, только чемпион Премьер-лиги попадает автоматически в Высшую лигу. К тому же в сезон Премьер-лиги попадают и команды проигравшие в 1/8 финала Высшей лиги, которым предлагают продолжить сезон в Премьер-лиге.

Играют команды:
  • Женская сборная ЮФУ «Ррр», Ростов-на-Дону
  • Сборная университета Синергия, Москва
  • «Всё серьёзно», Кемерово
  • «Азбука», Благовещенск
  • «Жим Керри РЭУ им Г.В. Плеханова», Москва
  • «Самара», Самара
  • Сборная каких-то людей, Москва
  • «Команда КВН БГУ», Минск


Продолжительность: 01:12:51

Видеокодек: DivX
Битрейт видео: 1801 kb/s
Размер кадра: 704x400
Качество видео: SATRip
Аудиокодек: MP3, 2 ch
Битрейт аудио: 128 kb/s
Код:
Общее
Полное имя                               : D:\Раздачи\KVN.2014.Premer.Liga.1-aja.igra.(19.07.2014).SATRip.NNM-CLUB.avi
Формат                                   : AVI
Формат/Информация                        : Audio Video Interleave
Размер файла                             : 1012 Мбайт
Продолжительность                        : 1 ч. 12 м.
Общий поток                              : 1942 Кбит/сек
Программа кодирования                    : transcode-1.1.5

Видео
Идентификатор                            : 0
Формат                                   : MPEG-4 Visual
Параметр BVOP формата                    : Да
Параметр QPel формата                    : Нет
Параметр GMC формата                     : Без точки перехода
Параметр матрицы формата                 : Default (H.263)
Идентификатор кодека                     : DX50
Идентификатор кодека/Подсказка           : DivX 5
Продолжительность                        : 1 ч. 12 м.
Битрейт                                  : 1801 Кбит/сек
Ширина                                   : 704 пикселя
Высота                                   : 400 пикселей
Соотношение сторон                       : 16:9
Частота кадров                           : 25,000 кадров/сек
Цветовое пространство                    : YUV
Субдискретизация насыщенности            : 4:2:0
Битовая глубина                          : 8 бит
Тип развёртки                            : Прогрессивная
Метод сжатия                             : С потерями
Бит/(Пиксели*Кадры)                      : 0.256
Размер потока                            : 939 Мбайт (93%)
Библиотека кодирования                   : Intel(R) MPEG-4 encoder based on Intel(R) IPP 6.1 build 137.20[6.1.137.763]

Аудио
Идентификатор                            : 1
Формат                                   : MPEG Audio
Версия формата                           : Version 1
Профиль формата                          : Layer 3
Режим                                    : Joint stereo
Расширение режима                        : MS Stereo
Идентификатор кодека                     : 55
Идентификатор кодека/Подсказка           : MP3
Продолжительность                        : 1 ч. 12 м.
Вид битрейта                             : Постоянный
Битрейт                                  : 128 Кбит/сек
Каналы                                   : 2 канала
Частота                                  : 48,0 КГц
Метод сжатия                             : С потерями
Размер потока                            : 66,7 Мбайт (7%)
Выравнивание                             : Соединение по промежуткам
Продолжительность промежутка             : 24  мс. (0,60 видеокадр)
Время предзагрузки промежутка            : 48  мс.
Библиотека кодирования                   : LAME3.98.2
Скриншоты:


КВН на NoNaMe Club
Время раздачи: 24/7,
до 5 скачавших.
KVN.2014.Premer.Liga.1-aja.igra.(19.07.2014).SATRip.NNM-CLUB.avi.torrent
 Торрент:   Зарегистрирован
 
Зарегистрируйтесь и скачайте торрент!
20 KB
Free Leech
Примагнититься
 Зарегистрирован:   19 Июл 2014 16:19:03
 Размер:   1012 MB  (
 Рейтинг:   4,5 (Голосов: 84)
 Поблагодарили:   313
 Проверка:   Оформление проверено модератором 19 Июл 2014 16:26:47
Как cкачать  ·  Как раздать  ·  Правильно оформить  ·  Поднять ратио!  

_________________
Правила оформления релизов в разделе «Видео» | Исправил релиз? - напиши об этом в ЛС
mDsJMt3PgF
Стаж: 6 лет 4 мес.
Сообщений: 16
Ratio: 25,787
0.87%
russia.gif
Скачал, на плазме 51 не качественно, жду другой раздачи.
anch312
Стаж: 5 лет
Сообщений: 1
Ratio: 45,516
100%
Будет HD?

Спасибо
Nemec555
Стаж: 5 лет 11 мес.
Сообщений: 742
Ratio: 108,251
Раздал: 57,93 TB
Поблагодарили: 2824
100%
Откуда: Берлин
germany.gif
Смешного мало, даже очень... Лишь пару шуток и номеров понравилось у новеньких.
Топик был перенесен из форума КВН в форум Архив Юмора

Причина переноса: http://nnmclub.to/forum/viewtopic.php?t=808023
svlesin
Показать сообщения:   
Начать новую тему   Ответить на тему    Торрент-трекер NNM-Club -> Архив торрентов -> Архив Юмора Часовой пояс: GMT + 3
Страница 1 из 1