Интеллигентный торрент-трекер
canvas not supported
Нас вместе: 4 137 278

Атомный лес (2014) SATRip (Сезон 2, 9 серий из 9)


 
 
RSS
Начать новую тему   Ответить на тему    Торрент-трекер NNM-Club -> Мультфильмы -> Отечественные Мультсериалы
Автор Сообщение
pop4tune ®
 
Стаж: 9 лет 2 мес.
Сообщений: 686
Ratio: 60,871
Раздал: 19,67 TB
Поблагодарили: 1571
100%
micronesia.gif
Атомный лес (2014) SATRip (Сезон 2, 9 серий из 9)
Год выпуска: 2014
Жанр: Для взрослых, Приключения, Рисованная анимация

Язык: Русский

Описание:
Мутанты — не всегда плохо! В далёком будущем, где человечество давно покорило космос, в уличных автоматах продаются термоядерный синтез и нанотанки, люди больше похожи на лишённых эмоций инопланетян. В течение ста лет после ядерной аварии в огороженной зоне «А» выросли несколько поколений животных.

Мутировав под воздействием радиации, они стали не глупее среднестатистического человека. Звери живут на останках человеческой цивилизации, которые поглотил лес, и вполне успешно пользуются её плодами. Несмотря на приобретённый ум, звери сохранили свои инстинкты, и они постоянно разрываются между привычной природой и приобретённым социумом. В чью пользу будет перевес?

Собственное производство 2х2! Самый успешный проект канала!

Дата российской премьеры: 19 мая 2014
Возраст: зрителям, достигшим 16 лет

Режиссер: Алексей Лебедев
Персонажи: Медведи, зайцы и прочие мутанты Атомного леса. Изредка - люди.



Продолжительность: 9 х ~00:22:00
Качество видео: SATRip
Перевод: Не требуется

Видеокодек: Xvid
Битрейт видео: ~ 1500 Кбит/с
Размер кадра: 720x400
Аудиокодек: MP3, 2 канала
Битрейт аудио: 192 Кбит/с
Список серий:
1. План природы
2. Защита зверей от информации
3. Отложенное путешествие
4. Внутренний Стас
5. Садовник
6. Юмор, будь ты проклят!
7. Бог, дьявол, его брат и их мать
8. Астрономы и врачи
9. Секрет скуки
Общее
Полное имя : E:\cinema\Атомный лес 2 SatRip\Атомный лес S02E01 План природы.avi
Формат : AVI
Формат/Информация : Audio Video Interleave
Размер файла : 266 Мбайт
Продолжительность : 22 м.
Общий поток : 1691 Кбит/сек
Библиотека кодирования : VirtualDub build 32842/release

Видео
Идентификатор : 0
Формат : MPEG-4 Visual
Профиль формата : Advanced Simple@L5
Параметр BVOP формата : 1
Параметр QPel формата : Нет
Параметр GMC формата : Без точки перехода
Параметр матрицы формата : Default (H.263)
Режим смешивания : Сжатый битовый поток
Идентификатор кодека : XVID
Идентификатор кодека/Подсказка : XviD
Продолжительность : 22 м.
Битрейт : 1489 Кбит/сек
Ширина : 720 пикселей
Высота : 400 пикселей
Соотношение сторон : 16:9
Частота кадров : 25,000 кадров/сек
Цветовое пространство : YUV
Субдискретизация насыщенности : 4:2:0
Битовая глубина : 8 бит
Тип развёртки : Прогрессивная
Метод сжатия : С потерями
Бит/(Пиксели*Кадры) : 0.207
Размер потока : 235 Мбайт (88%)
Библиотека кодирования : XviD 64

Аудио
Идентификатор : 1
Формат : MPEG Audio
Версия формата : Version 1
Профиль формата : Layer 3
Режим : Joint stereo
Идентификатор кодека : 55
Идентификатор кодека/Подсказка : MP3
Продолжительность : 22 м.
Вид битрейта : Постоянный
Битрейт : 192 Кбит/сек
Каналы : 2 канала
Частота : 48,0 КГц
Метод сжатия : С потерями
Размер потока : 30,2 Мбайт (11%)
Выравнивание : Разделение по промежуткам
Продолжительность промежутка : 40 мс. (1,00 видеокадр)
Время предзагрузки промежутка : 500 мс.
Скриншоты:




Время раздачи: До первых 5 сидеров

Первый сезон (все 10 серий)
 Торрент: Платиновая раздача  Зарегистрирован
 
Скачать


Примагнититься
 Зарегистрирован:   16 Июн 2014 15:02:25
 Размер:   2,34 GB  (
 Рейтинг:   4,7 (Голосов: 105)
 Поблагодарили:   361
 Проверка:   Оформление проверено модератором 16 Июн 2014 18:57:29
Как cкачать  ·  Как раздать  ·  Правильно оформить  ·  Поднять ратио!  
LShark
Стаж: 10 лет 11 мес.
Сообщений: 104
Ratio: 11,962
Поблагодарили: 675
100%
На мой взгляд - второй сезон намного слабее и много лишней пошлости. Увы, пропала та изюминка, которая была в первом сезоне. Теперь это точно "Для взрослых". Точнее - "Обязательно не для детей".
Попытки юморить намного скучнее.
Если первый сезон смотрелся на ура, то второй смотрится как обычный выкидыш мультпрома.

Людей и зверей снова совместили (например, серия про юмор). Пропали философские моменты (как раз не пендосовские философские монологи минут на 10, а именно моменты, которые в первом сезоне привносили некую задумчивость, а не вынос мозга).
pop4tune ®
 
Стаж: 9 лет 2 мес.
Сообщений: 686
Ratio: 60,871
Раздал: 19,67 TB
Поблагодарили: 1571
100%
micronesia.gif
LShark
Мне сначала тоже второй сезон слабее показался, но через некоторое время я изменил свое мнение - теперь он мне нравится не меньше, чем первый. Поэтому не могу с тобой согласиться ))
merlin tm
Стаж: 8 лет 2 мес.
Сообщений: 16
Ratio: 1,343
Поблагодарили: 356
100%
albania.gif
Судя по всему - третий сезон будет если будет очередной спонсор?

Мне оба сезона нравятся. А вынос мозга - это морлаб или поллитровая мышь. Этим мультиком можно выносить только незакаленные мозги :))))))
Kbee
Стаж: 10 лет 4 мес.
Сообщений: 520
Ratio: 28,842
Поблагодарили: 8983
100%
Откуда: Wild West
russia.gif
Спасибо огромное! Давно ждали продолжения.
Nihon
Стаж: 7 лет 8 мес.
Сообщений: 6
Ratio: 1,318
17.54%
Спасибо. Ждал.
pop4tune ®
 
Стаж: 9 лет 2 мес.
Сообщений: 686
Ratio: 60,871
Раздал: 19,67 TB
Поблагодарили: 1571
100%
micronesia.gif
Третий сезон временно заморозили :((
scucko
Стаж: 7 лет 5 мес.
Сообщений: 285
Ratio: 41,395
100%
Респект раздающему!!
Случайно наткнулся, в подписи увидел.
Pick
Стаж: 8 лет
Сообщений: 140
Ratio: 0,399
100%
ecuador.gif
спасибо за мультики!!!
pop4tune ®
 
Стаж: 9 лет 2 мес.
Сообщений: 686
Ratio: 60,871
Раздал: 19,67 TB
Поблагодарили: 1571
100%
micronesia.gif
Проект собирает средства на продолжение:
https://planeta.ru/campaigns/atomles

Цитата:
Я планирую по мотивам сериала выпустить фильм. Хронометраж - 70-73 минуты. Это отдельная история, в центре которой Стронций и Бог Леса. Действие происходит в мире людей, который в самом сериале всегда оставался за кадром.
corre​ctor6​5​
Стаж: 7 лет
Сообщений: 625
Ratio: 21,816
Раздал: 27,03 TB
Поблагодарили: 5976
100%
ussr.gif
pop4tune
Случайно не знаете, что с Бриклберри? Будет 4 сезон?
pop4tune ®
 
Стаж: 9 лет 2 мес.
Сообщений: 686
Ratio: 60,871
Раздал: 19,67 TB
Поблагодарили: 1571
100%
micronesia.gif
corrector65
я не в курсе.
Показать сообщения:   
Начать новую тему   Ответить на тему    Торрент-трекер NNM-Club -> Мультфильмы -> Отечественные Мультсериалы Часовой пояс: GMT + 3
Страница 1 из 1

День смеха и юмора отмечается 1 апреля. В этот день принято шутить и разыгрывать друзей, коллег по работе, домашних, словом всех, с кем Вам предстоит увидеться в этот праздник – первое апреля. Первоапрельские розыгрыши, приколы на 1 апреля, первоапрельские шутки должны быть веселыми и безобидными. Приколы на 1 апреля, как правило, удаются в том случае, если человек забыл какой сегодня месяц и день, словом, забыл про 1 апреля – день смеха, шуток, день дурака.

Желаем Вам много улыбок и хорошего настроения в этот день!
С Уважением, администрация NNM-Club :)