Классический форум-трекер
canvas not supported
Нас вместе: 4 089 462

Авантюристы (2014) WEBRip


Страницы:  1, 2, 3  След. 
 
RSS
Начать новую тему   Ответить на тему    Торрент-трекер NNM-Club -> Отечественное кино -> Отечественные Фильмы (HD*Rip/LQ, DVDRip, SATRip, VHSRip)
Автор Сообщение
Asha12 ®
Uploader 100+
Стаж: 8 лет 4 мес.
Сообщений: 1885
Ratio: 650,084
Поблагодарили: 1183911
100%
ussr.gif
Авантюристы (2014) WEBRip
Год выпуска: 2014
Производство: Россия | Нон-стоп Продакшн
Жанр: Приключения

Режиссер: Константин Буслов
Продюсер: Сергей Мелькумов, Александр Роднянский
Актеры: Константин Хабенский, Светлана Ходченкова, Денис Шведов и др

Описание фильма:
Катя и Андрей, успешный молодой банкир, прилетают на Мальту на отдых. В дайвинг-центре они случайно встречают Макса — профессионального дайвера, тайком занимающегося черной археологией, и, по совместительству, бывшего возлюбленного Кати.Во время одного из погружений Катя находит фрагмент спасательного жилета с номером немецкой подлодки времен Второй мировой. Девушка выясняет, что в 1942 году у мальтийского ордена рыцарей-госпитальеров была похищена коллекция уникальных древнеегипетских реликвий, которая должна была быть доставлена в Германию именно на подлодке. Однако ценный груз туда в итоге не прибыл.Рассудив, что подводная лодка с сокровищами, скорее всего, лежит на дне у берегов Мальты, троица начинает ее поиски, ввязываясь в череду опасных авантюр, в том числе и подводных. А отношения между искателями приключений все больше напоминают любовный треугольник…

Перевод: Не требуется
Язык: Русский
Субтитры: Отсутствуют



Дата мировой премьеры: 17 апреля 2014
Дата российской премьеры: 10 апреля 2014, «Двадцатый Век Фокс СНГ», «A Company»

Продолжительность: 01:28:35
Качество видео: WEBRip

Видеокодек: Xvid
Битрейт видео: ~1888 Kb/s
Размер кадра: 720x304
Аудиокодек: AC3 2.0
Битрейт аудио: 320 kb/s
Сэмпл: Скачать
Код:

Общее
Полное имя                               : Avontur1st0.2014.O.WEBRip.1400Mb.avi
Формат                                   : AVI
Формат/Информация                        : Audio Video Interleave
Размер файла                             : 1,37 Гбайт
Продолжительность                        : 1 ч. 28 м.
Общий поток                              : 2209 Кбит/сек
Программа кодирования                    : VirtualDubMod 1.5.10.2 (build 2540/release)
Библиотека кодирования                   : VirtualDubMod build 2540/release

Видео
Идентификатор                            : 0
Формат                                   : MPEG-4 Visual
Профиль формата                          : Advanced Simple@L5
Параметр BVOP формата                    : 2
Параметр QPel формата                    : Нет
Параметр GMC формата                     : Без точки перехода
Параметр матрицы формата                 : Выборочная
Идентификатор кодека                     : XVID
Идентификатор кодека/Подсказка           : XviD
Продолжительность                        : 1 ч. 28 м.
Битрейт                                  : 1880 Кбит/сек
Ширина                                   : 720 пикселей
Высота                                   : 304 пикселя
Соотношение сторон                       : 2,35:1
Частота кадров                           : 25,000 кадров/сек
Цветовое пространство                    : YUV
Субдискретизация насыщенности            : 4:2:0
Битовая глубина                          : 8 бит
Тип развёртки                            : Прогрессивная
Метод сжатия                             : С потерями
Бит/(Пиксели*Кадры)                      : 0.344
Размер потока                            : 1,16 Гбайт (85%)
Библиотека кодирования                   : XviD 1.2.1 (UTC 2008-12-04)

Аудио
Идентификатор                            : 1
Формат                                   : AC-3
Формат/Информация                        : Audio Coding 3
Расширение режима                        : CM (complete main)
Параметр Endianness формата              : Big
Идентификатор кодека                     : 2000
Продолжительность                        : 1 ч. 28 м.
Вид битрейта                             : Постоянный
Битрейт                                  : 320 Кбит/сек
Каналы                                   : 2 канала
Расположение каналов                     : Front: L R
Частота                                  : 48,0 КГц
Битовая глубина                          : 16 бит
Метод сжатия                             : С потерями
Размер потока                            : 203 Мбайт (14%)
Выравнивание                             : Разделение по промежуткам
Продолжительность промежутка             : 40  мс. (1,00 видеокадр)
Время предзагрузки промежутка            : 500  мс.
Скриншоты:


Время раздачи: 24/7 (до 10 скачавших)
[NNM-Club.me]_Avontur1st0.2014.O.WEBRip.1400Mb.avi.torrent
 Торрент: Платиновая раздача  Зарегистрирован
 
Скачать


Примагнититься
 Зарегистрирован:   08 Май 2014 14:42:17
 Размер:   1,37 GB  (
 Рейтинг:   4,5 (Голосов: 571)
 Поблагодарили:   3064
 Проверка:   Оформление проверено модератором 08 Май 2014 15:36:14
Как cкачать  ·  Как раздать  ·  Правильно оформить  ·  Поднять ратио!  
Asha12 ®
Uploader 100+
Стаж: 8 лет 4 мес.
Сообщений: 1885
Ratio: 650,084
Поблагодарили: 1183911
100%
ussr.gif
Приятного просмотра!!! =)

_________________
Гораздо легче найти ошибку, чем истину. @ Иоганн Вольфганг Гёте
Dmitry-Al-S
Стаж: 4 года 9 мес.
Сообщений: 1
Ratio: 11,992
100%
Кто-нибудь отпишитесь как качество, стоит качать или нет
Imvegas
Стаж: 5 лет 8 мес.
Сообщений: 73
Ratio: 9,13
Поблагодарили: 447
100%
Откуда: UA
ussr.gif
Качаю ради Хабенского.

_________________
Shut up and drive!
Evgen_62
Стаж: 7 лет 5 мес.
Сообщений: 49
Ratio: 13,301
Поблагодарили: 252
100%
pirates.png
НЕ буду нарушать авторских прав.
Трахтенберг
Стаж: 5 лет 5 мес.
Сообщений: 5386
Ratio: 6676,394
Поблагодарили: 237022
100%
deleted
dimanoid333
Стаж: 7 лет 7 мес.
Сообщений: 2144
Ratio: 56,907
Поблагодарили: 104289
100%
Откуда: СССР
ussr.gif
Трахтенберг писал(а): Перейти к сообщению

Надо из принципа:
1) скачать - в знак протеста против бредового законодательства;
2) и удалить - ибо УГ.

Правильное решение.

_________________
Когда знаешь как, умеешь, но уже не можешь сам - ты тренер.
Когда знаешь как, не умеешь, не можешь сам, но можешь научить - ты профессор.
Когда не знаешь как, не можешь сам, не можешь научить, но можешь наказать, если они сделают не так - ты президент.
BranislovasLEE
Стаж: 6 лет 6 мес.
Сообщений: 20
Ratio: 5,625
33.33%
ireland.gif
А она весь филмь в этом костюмчике ходит ??? =) тогда качяю :D
olchish
Стаж: 6 лет 2 мес.
Сообщений: 590
Ratio: 19,884
Раздал: 24,26 TB
100%
Откуда: Саранск
pirates.png
Хабенского качать и смотреть.
Villise77
 
Стаж: 7 лет 5 мес.
Сообщений: 17
Ratio: 6,879
61.95%
ukraine.gif
Качество нормальное и звук и видео, фильм на троечку очень с натяжкой. Раз глянуть и забыть сразу же. Релизеру спасибо!
markoni625
Стаж: 5 лет 9 мес.
Сообщений: 248
Ratio: 4,046
100%
[quote="Imvegas";p="6518154"]Качаю ради Хабенского.[/quote Качаю ради Ходченко

Добавлено спустя 1 минуту 39 секунд:

Ну а что тендем ХАБЕНСКИЙ ХОДЧЕНКО не плохой. Релизу respekt
HunterD0525
Стаж: 5 лет 5 мес.
Сообщений: 9
Ratio: 379,285
100%
сюжет "золото дураков"
laku
Стаж: 5 лет 10 мес.
Сообщений: 76
Ratio: 17,485
100%
russia.gif
не стану обижать расеянских правообладателей и не качну!:) Всех с Днем Победы! УРАААААА!
Zoo1978
Стаж: 8 лет 10 мес.
Сообщений: 22
Ratio: 9,85
0.56%
Отношусь к Российскому кино с пониманием.Но этот фильм полная нелепица,без сюжета.Не Рекомендую.
Значительно больше запомнились эти фильмы Гидравлика (2010) DVDScr и Кто я? (2010) DVDRip Понимаю,что каждому своё :) Так что не судите строго :)
Андрей В.Ч. - К.
Стаж: 9 лет 1 мес.
Сообщений: 168
Ratio: 3,06
0.02%
Откуда: Екатеринбург
russia.gif
Evgen_62 писал(а): Перейти к сообщению
НЕ буду нарушать авторских прав.


Нарушать права хабенских - святое дело
Показать сообщения:   
Начать новую тему   Ответить на тему    Торрент-трекер NNM-Club -> Отечественное кино -> Отечественные Фильмы (HD*Rip/LQ, DVDRip, SATRip, VHSRip) Часовой пояс: GMT + 3
Страницы:  1, 2, 3  След.
Страница 1 из 3