Классический форум-трекер
canvas not supported
Нас вместе: 4 068 915

Снова 16 / 16 ans ou presque (2013) HDRip [Line]


 
 
RSS
Начать новую тему   Ответить на тему    Торрент-трекер NNM-Club -> Архив торрентов -> Архив Видео
Автор Сообщение
Sедой ®
Стаж: 8 лет 6 мес.
Сообщений: 3059
Ratio: 5117,534
Поблагодарили: 643103
100%
Откуда: Донецк
Снова 16 / 16 ans ou presque (2013) HDRip«Играй гормон!»
Год выпуска: 2013
Производство: Франция / Les films du 24, TF1 Droits Audiovisuels, TF1 Films Production
Жанр: Комедия

Режиссер: Тристан Сегуэла
Продюсер: Микаэль Абекассис, Бенжамен Эсс
Актеры: Лоран Лафитт, Виктор Джордж, Кристоф Малавуа, Джудит Эль Зейн, Джонатан Коэн, Франсуа Роллин, Анн Кановас, Пабло Поли, Александр Принц, Thomas Bonsang

Описание фильма:
Арно Мюстье — само олицетворение успеха. Юрист и красноречивый философ, который своими словами умеет завести слушателей в тупик. Но в один прекрасный момент все начинает рушиться. Пара прыщей, странное поведение — и Арно получает диагноз — С. П. — синдром подростка. Это одно из редчайших расстройств, которым страдают взрослые мужчины, вновь проходя через кризис шестнадцати лет. Арно открывает для себя целый мир подростков, удивляя своим поведением всех окружающих. И первым, кто видит героя в новом «амплуа», оказывается его собственный брат-подросток.

Перевод: Дублированный (Чистый звук)
Субтитры: Отсутствуют



Дата мировой премьеры: 22 сентября 2013
Дата российской премьеры: 20 февраля 2014, «Каравелла DDC»
Дата украинской премьеры: 27 февраля 2014, «Каравелла DDC Украина»

Продолжительность: 01:27:12
Качество видео: HDRip

Видеокодек: Xvid
Битрейт видео: ~2041 Kbit/s
Размер кадра: 720 x 304
Аудиокодек: AC3 2.0
Битрейт аудио: 192 Kbit/s
Код:
Общее
Полное имя                       : D:\Торренты\Снова 16.2013.HDRip.avi
Формат                           : AVI
Формат/Информация                : Audio Video Interleave
Размер файла                     : 1,37 Гбайт
Продолжительность                : 1 ч. 27 м.
Общий поток                      : 2243 Кбит/сек
Программа кодирования            : VirtualDubMod 1.5.10.2 (build 2540/release)
Библиотека кодирования           : VirtualDubMod build 2540/release

Видео
Идентификатор                    : 0
Формат                           : MPEG-4 Visual
Профиль формата                  : Advanced Simple@L5
Параметр BVOP формата            : 2
Параметр QPel формата            : Нет
Параметр GMC формата             : Без точки перехода
Параметр матрицы формата         : Default (MPEG)
Идентификатор кодека             : XVID
Идентификатор кодека/Подсказка   : XviD
Продолжительность                : 1 ч. 27 м.
Битрейт                          : 2041 Кбит/сек
Ширина                           : 720 пикс.
Высота                           : 304 пикс.
Соотношение сторон               : 2,35:1
Частота кадров                   : 24,000 кадр/сек
Цветовое пространство            : YUV
Подвыборка цветности             : 4:2:0
Битовая глубина                  : 8 бит
Тип развёртки                    : Прогрессивная
Метод сжатия                     : С потерями
Бит/(Пиксели*Кадры)              : 0.389
Размер потока                    : 1,24 Гбайт (91%)
Библиотека кодирования           : XviD 1.2.1 (UTC 2008-12-04)

Аудио
Идентификатор                    : 1
Формат                           : AC-3
Формат/Информация                : Audio Coding 3
Расширение режима                : CM (complete main)
Идентификатор кодека             : 2000
Продолжительность                : 1 ч. 27 м.
Вид битрейта                     : Постоянный
Битрейт                          : 192 Кбит/сек
Каналы                           : 2 канала
Расположение каналов             : Front: L R
Частота                          : 48,0 КГц
Битовая глубина                  : 16 бит
Метод сжатия                     : С потерями
Размер потока                    : 120 Мбайт (9%)
Выравнивание                     : Разделение по промежуткам
Продолжительность промежутка     : 42  мс. (1,00 видеокадр)
Время предзагрузки промежутка    : 500 ms

Скриншоты:

Время раздачи: 24/7 по возможности
[NNM-Club.me]_Snova 16.2013.HDRip.avi.torrent
 Торрент:   Зарегистрирован
 
Зарегистрируйтесь и скачайте торрент!
14,1 KB

Примагнититься
 Зарегистрирован:   08 Май 2014 13:12:46
 Размер:   1,37 GB  (
 Рейтинг:   4,4 (Голосов: 78)
 Поблагодарили:   339
 Проверка:   Оформление проверено модератором 08 Май 2014 14:08:58
Как cкачать  ·  Как раздать  ·  Правильно оформить  ·  Поднять ратио!  
jenia789
Стаж: 7 лет
Сообщений: 10
Ratio: 2,408
0%
Как фильм, отпишитесь, кто смотрел уже..
Fu11eren
Стаж: 8 лет 9 мес.
Сообщений: 896
Ratio: 6,215
Поблагодарили: 7947
100%
Откуда: Москва
russia.gif
jenia789 писал(а): Перейти к сообщению
Как фильм, отпишитесь, кто смотрел уже..

Не советую смотреть, редчайшее уг. Разлюбил я за последние годы французские фильмы(. Тут дело не в жанре или в чем-то еще, я могу под настроение и посмеяться над тупой комедией типа Бората или как там его, хотя конечно не любимый жанр, но тут все плохо абсолютно все.

_________________
В одном не вправе мы жаловаться на жизнь: она никого не держит.
ANGRY_BOSS
Стаж: 6 лет
Сообщений: 16
Ratio: 63,424
100%
Откуда: Suva
fiji.gif
всем привет и с 9 мая и с победой,,,,,Прошу подскажите какое музыка играет в 0:48:50
Lox2010
Стаж: 8 лет 4 мес.
Сообщений: 686
Ratio: 2,154
100%
nnm-club.gif
Хоть чуть-чуть улыбнуло
Топик был перенесен из форума Зарубежные Новинки (HD*Rip/LQ, DVDRip) в форум Архив Видео

Причина переноса: http://nnmclub.to/forum/viewtopic.php?t=797012
FAGOT100
mr_noob
Стаж: 7 лет 11 мес.
Сообщений: 950
Ratio: 140,479
100%
russia.gif
сюрреализм и слабая комедия

_________________
Like no other...
lerapups
Стаж: 5 лет 3 мес.
Сообщений: 99
Ratio: 20,533
Поблагодарили: 1636
100%
Откуда: Тула
russia.gif
Классный фильм, поставлю 7.5/10 :подмигивание:

_________________
Intel Core i7 3.4(4.2)GHz / Win10(x64) /ОЗУ 16GB - GTX 1070 SJ
Показать сообщения:   
Начать новую тему   Ответить на тему    Торрент-трекер NNM-Club -> Архив торрентов -> Архив Видео Часовой пояс: GMT + 3
Страница 1 из 1