Классический форум-трекер
canvas not supported
Нас вместе: 4 069 056

Враг / Enemy (2013) WEBRip [VO]


 
 
RSS
Начать новую тему   Ответить на тему    Торрент-трекер NNM-Club -> Архив торрентов -> Архив Видео
Автор Сообщение
Sедой ®
Стаж: 8 лет 7 мес.
Сообщений: 3059
Ratio: 5117,534
Поблагодарили: 643113
100%
Откуда: Донецк
Враг / Enemy (2013) WEBRip «Опасайся встречи с самим собой...»
Год выпуска: 2013
Производство: Канада, Испания
Жанр: Драма, Детектив
Перевод: Одноголосый закадровый, любительский
Озвучка / Автор перевода: Хихикающий доктор
Субтитры: Отсутствуют

Дата мировой премьеры: 8 сентября 2013
Дата российской премьеры: 26 июня 2014, «Каравелла DDC»

Режиссер: Дени Вильнёв
Продюсер: М.А. Фаура, Нив Фичман, Фрайзер Эш
Актеры: Джейк Джилленхол, Мелани Лоран, Сара Гадон, Изабелла Росселлини, Джошуа Пиис, Тим Пост, Кедар Браун, Дэррил Динн, Миша Хайстэд, Меган Манн

Описание фильма:
Чтобы хоть как-то развеять свою депрессию, разведенный учитель истории Тертулиано Максимо Афонсо берет в прокате видеокассету с комедией «Упорный охотник подстрелит дичь». Фильм никак не впечатляет Тертулиано, и он ложится спать. Ночью его будят звуки из гостиной — оказывается, он забыл выключить пленку и видеомагнитофон заново проигрывает фильм. И тут Тертулиано обнаруживает, что исполнитель одной из эпизодических ролей выглядит в точности так, как он сам пять лет назад. Герой решает во что бы то ни стало найти своего двойника. Поиски оборачиваются настоящим наваждением, путешествием в самое сердце метафизической тьмы…



Продолжительность: 01:27:46
Качество видео: WEBRip

Видеокодек: Xvid
Битрейт видео: ~1001 Kbit/s
Размер кадра: 720 x 304
Аудиокодек: MP3, 2.0
Битрейт аудио: 192 Kbit/s
Код:
Общее
Полное имя                       : D:\Торренты\Враг.2013.HDRip.avi
Формат                           : AVI
Формат/Информация                : Audio Video Interleave
Размер файла                     : 755 Мбайт
Продолжительность                : 1 ч. 27 м.
Общий поток                      : 1204 Кбит/сек
Программа кодирования            : VirtualDubMod 1.5.10.3 (build 2550/release)
Библиотека кодирования           : VirtualDubMod build 2550/release

Видео
Идентификатор                    : 0
Формат                           : MPEG-4 Visual
Профиль формата                  : Simple@L5
Параметр BVOP формата            : Нет
Параметр QPel формата            : Нет
Параметр GMC формата             : Без точки перехода
Параметр матрицы формата         : Default (H.263)
Идентификатор кодека             : XVID
Идентификатор кодека/Подсказка   : XviD
Продолжительность                : 1 ч. 27 м.
Битрейт                          : 1001 Кбит/сек
Ширина                           : 720 пикс.
Высота                           : 304 пикс.
Соотношение сторон               : 2,35:1
Частота кадров                   : 30,000 кадр/сек
Цветовое пространство            : YUV
Подвыборка цветности             : 4:2:0
Битовая глубина                  : 8 бит
Тип развёртки                    : Прогрессивная
Метод сжатия                     : С потерями
Бит/(Пиксели*Кадры)              : 0.152
Размер потока                    : 627 Мбайт (83%)
Библиотека кодирования           : Lavc55.55.104

Аудио
Идентификатор                    : 1
Формат                           : MPEG Audio
Версия формата                   : Version 1
Профиль формата                  : Layer 3
Идентификатор кодека             : 55
Идентификатор кодека/Подсказка   : MP3
Продолжительность                : 1 ч. 27 м.
Вид битрейта                     : Постоянный
Битрейт                          : 192 Кбит/сек
Каналы                           : 2 канала
Частота                          : 44,1 КГц
Метод сжатия                     : С потерями
Размер потока                    : 120 Мбайт (16%)
Выравнивание                     : Разделение по промежуткам
Продолжительность промежутка     : 33  мс. (1,00 видеокадр)
Время предзагрузки промежутка    : 500 ms

Скриншоты:

Время раздачи: 24/7 по возможности
[NNM-Club.me]_Vrag.2013.HDRip.avi.torrent
 Торрент:   Зарегистрирован
 
Зарегистрируйтесь и скачайте торрент!
15,2 KB

Примагнититься
 Зарегистрирован:   23 Апр 2014 20:10:35
 Размер:   755 MB  (
 Рейтинг:   4,5 (Голосов: 35)
 Поблагодарили:   193
 Проверка:   Оформление проверено модератором 24 Апр 2014 18:24:07
Как cкачать  ·  Как раздать  ·  Правильно оформить  ·  Поднять ратио!  
The4X
Стаж: 7 лет 10 мес.
Сообщений: 21
Ratio: 10,949
79.31%
Качество похоже на CamRIP
konstantin35
Uploader 200+
 
Стаж: 8 лет 2 мес.
Сообщений: 742
Ratio: 349,468
100%
Откуда: Воронеж
ussr.gif
The4X писал(а): Перейти к сообщению
Качество похоже на CamRIP
На камрип похожа озвучка. :кругом голова:

_________________
Нет ничего ни плохого, ни хорошего в этом Мире. Есть только наше отношение к чему-либо.
Apri0ri
Стаж: 8 лет 7 мес.
Сообщений: 600
Ratio: 3,547
100%
russia.gif
будем ждать
molchel
Стаж: 6 лет
Сообщений: 1355
Ratio: 30,404
Поблагодарили: 4717
100%
Откуда: Краснодар
russia.gif
смотреть всем, но не в такой озвучке!
grishaos
Стаж: 8 лет 9 мес.
Сообщений: 68
Ratio: 17,64
0.66%
О чем этот гениальный фильм? :)))
drSHLEFF
Стаж: 8 лет 7 мес.
Сообщений: 55
Ratio: 40,453
Поблагодарили: 15
100%
russia.gif
grishaos писал(а): Перейти к сообщению
О чем этот гениальный фильм? :)))


Судя по постеру про какого-то мужика с городом (судя по башенке - Берлином) и паучком у него в голове... :D
titt75
Стаж: 7 лет 9 мес.
Сообщений: 63
Ratio: 9,705
100%
honduras.gif
Один мужик тифом заболел (на постере слева внизу надпись - тифф), затем весь фильм лечился, сделал операцию на голове - объемное лечебное тату в виде, как писали выше - Берлина.
Но не помогло - пауки там завелись.
Мораль - бриться иногда надо и кожанку стирать.
Вот.
Miktlan
Стаж: 8 лет 4 мес.
Сообщений: 41
Ratio: 41,874
100%
озвучка ужас просто
alex-power
Стаж: 5 лет 5 мес.
Сообщений: 24
Ratio: 17,148
100%
russia.gif
Качество как у Экранки.
UZver81
Стаж: 12 лет
Сообщений: 68
Ratio: 9,544
Раздал: 14,33 TB
Поблагодарили: 156
100%
Откуда: Страна вечно зеленых ...
krevedko.png
Фильм не понял... ждал крутой развязки а как всегда... если коротко о чем фильм:

_________________
Windows 10 x64 Pro
Топик был перенесен из форума Зарубежные Новинки (HD*Rip/LQ, DVDRip) в форум Архив Видео

Причина переноса: http://nnmclub.to/forum/viewtopic.php?t=804502
FAGOT100
Показать сообщения:   
Начать новую тему   Ответить на тему    Торрент-трекер NNM-Club -> Архив торрентов -> Архив Видео Часовой пояс: GMT + 3
Страница 1 из 1