Интеллигентный торрент-трекер
canvas not supported
Нас вместе: 4 105 158

Игра Престолов / Game of Thrones (2014) HDTVRip [H.264/1080p-LQ] (Сезон 4, серии 1-10 из 10) [EN \EN, RU sub]


Страницы:  1, 2, 3  След. 
 
RSS
Начать новую тему   Ответить на тему    Торрент-трекер NNM-Club -> Зарубежные сериалы -> Сериалы без перевода
Автор Сообщение
po6 ®
Стаж: 8 лет 9 мес.
Сообщений: 407
Ratio: 394,741
Поблагодарили: 13852
20.54%
Игра Престолов / Game of Thrones (2014) HDTVRip [H.264/1080p-LQ] (Сезон 4, серии 1-10 из 10) [EN \EN, RU sub]
Год выпуска: 2014
Жанр: Драма, Фэнтези, Приключения

Перевод: Отсутствует
Язык: Английский
Вид субтитров: Вшитые отключаемые
Язык субтитров: Русский (7kingdoms), Английский


Дата мировой премьеры: 06.04.2014

Режиссер: А.Грейвз, М.Макларен, А.Сахаров, Н.Маршалл и др.
Актеры: Лина Хиди, Питер Динклэйдж, Эмилия Кларк, Кит Харингтон, Николай Костер-Вальдау, Эйдан Гиллен, Чарльз Дэнс

Описание фильма:
По циклу романов Джорджа Р.Р.Мартина "Песнь льда и пламени".
Место действия - фэнтезийный мир, время действия напоминает наше родное Средневековье.
В 4-м сезоне смешаны события "Бури мечей" (3-я книга цикла), "Пир для ворон" (4-я), "Танец с драконами" (5-я).

Game of Thrones на NNM-Club

Продолжительность серии: ~ 00:55:00 серия
Качество видео: HDTVRip

Видеокодек: MPEG-4 AVC/H.264
Битрейт видео: ~8570 kbps
Размер кадра: 1920x1064, 1920x1072, 1920x1074 (в разных сериях разный)
Аудиокодек: AC3 5.1
Битрейт аудио: 384 kbps
1. Two Swords / Два меча. Дата выхода 06.04.2014
2. The Lion and the Rose / Лев и роза. 13.04.2014
3. Breaker of Chains / Разрушительница оков. 20.04.2014
4. Oathkeeper / Верный клятве. 27.04.2014
5. First of His Name / Первый этого имени. 04.05.2014
6. The Laws of Gods and Men / Законы богов и людей. 11.05.2014
7. Mockingbird / Пересмешник. 18.05.2014
8. The Mountain and the Viper / Гора и гадюка. 01.06.2014
9. The Watchers on the Wall / Дозорные на стене. 08.06.2014
10. The Children / Дети. 15.06.2014
Русские субтитры берутся с notabenoid.com до того, как перевод получит статус "готово". Могут быть небольшие погрешности в переводе. Субтитры в окончательной редакции можно скачать здесь: http://7kingdoms.ru/2011/subtitles-game-of-thrones/

Фэн-сайт "Песни льда и пламени": http://7kingdoms.ru/
Путеводитель по фильму: http://viewers-guide.hbo.com/game-of-thrones
Общее
Уникальный идентификатор : 214911316925950422966428640921157552378 (0xA1AE6A0032F9891385C427BEEEE2C8FA)
Полное имя : G:\Films\Game Of Thrones\Igra.Prestolov.S04.1080p\Igra.Prestolov.S04E01.1080p.mkv
Формат : Matroska
Размер файла : 3,34 Гбайт
Продолжительность : 1 ч. 0 м.
Общий поток : 7876 Кбит/сек
Дата кодирования : UTC 2014-04-20 16:55:33
Программа кодирования : mkvmerge v6.9.1 ('Blue Panther') 64bit built on Apr 18 2014 18:23:38
Библиотека кодирования : libebml v1.3.0 + libmatroska v1.4.1

Видео
Идентификатор : 1
Формат : AVC
Формат/Информация : Advanced Video Codec
Профиль формата : High@L4.1
Параметр CABAC формата : Да
Параметр ReFrames формата : 4 кадра
Идентификатор кодека : V_MPEG4/ISO/AVC
Продолжительность : 1 ч. 0 м.
Битрейт : 7336 Кбит/сек
Ширина : 1920 пикс.
Высота : 1064 пикс.
Соотношение сторон : 16:9
Частота кадров : 23,976 кадр/сек
Цветовое пространство : YUV
Подвыборка цветности : 4:2:0
Битовая глубина : 8 бит
Тип развёртки : Прогрессивная
Бит/(Пиксели*Кадры) : 0.150
Размер потока : 3,11 Гбайт (93%)
Язык : English

Аудио
Идентификатор : 2
Формат : AC-3
Формат/Информация : Audio Coding 3
Расширение режима : CM (complete main)
Идентификатор кодека : A_AC3
Продолжительность : 1 ч. 0 м.
Вид битрейта : Постоянный
Битрейт : 384 Кбит/сек
Каналы : 2 канала
Расположение каналов : Front: L R
Частота : 48,0 КГц
Битовая глубина : 16 бит
Метод сжатия : С потерями
Размер потока : 167 Мбайт (5%)
Язык : English

Текст #1
Идентификатор : 3
Формат : UTF-8
Идентификатор кодека : S_TEXT/UTF8
Идентификатор кодека/Информация : UTF-8 Plain Text
Язык : Russian

Текст #2
Идентификатор : 4
Формат : UTF-8
Идентификатор кодека : S_TEXT/UTF8
Идентификатор кодека/Информация : UTF-8 Plain Text
Язык : English
Общее
Уникальный идентификатор : 240337707068759016793981113460410235053 (0xB4CF5BD283163681AF2D162CA1DF38AD)
Полное имя : G:\Films\Game Of Thrones\Igra.Prestolov.S04.1080p\Igra.Prestolov.S04E02.1080p.mkv
Формат : Matroska
Размер файла : 2,96 Гбайт
Продолжительность : 53 м.
Общий поток : 7977 Кбит/сек
Дата кодирования : UTC 2014-04-20 17:23:10
Программа кодирования : mkvmerge v6.9.1 ('Blue Panther') 64bit built on Apr 18 2014 18:23:38
Библиотека кодирования : libebml v1.3.0 + libmatroska v1.4.1

Видео
Идентификатор : 1
Формат : AVC
Формат/Информация : Advanced Video Codec
Профиль формата : High@L4.1
Параметр CABAC формата : Да
Параметр ReFrames формата : 4 кадра
Идентификатор кодека : V_MPEG4/ISO/AVC
Продолжительность : 53 м.
Битрейт : 7434 Кбит/сек
Ширина : 1920 пикс.
Высота : 1072 пикс.
Соотношение сторон : 16:9
Частота кадров : 23,976 кадр/сек
Цветовое пространство : YUV
Подвыборка цветности : 4:2:0
Битовая глубина : 8 бит
Тип развёртки : Прогрессивная
Бит/(Пиксели*Кадры) : 0.151
Размер потока : 2,76 Гбайт (93%)
Язык : English

Аудио
Идентификатор : 2
Формат : AC-3
Формат/Информация : Audio Coding 3
Расширение режима : CM (complete main)
Идентификатор кодека : A_AC3
Продолжительность : 53 м.
Вид битрейта : Постоянный
Битрейт : 384 Кбит/сек
Каналы : 6 каналов
Расположение каналов : Front: L C R, Side: L R, LFE
Частота : 48,0 КГц
Битовая глубина : 16 бит
Метод сжатия : С потерями
Задержка видео : 4 мс.
Размер потока : 146 Мбайт (5%)
Язык : English

Текст #1
Идентификатор : 3
Формат : UTF-8
Идентификатор кодека : S_TEXT/UTF8
Идентификатор кодека/Информация : UTF-8 Plain Text
Язык : Russian

Текст #2
Идентификатор : 4
Формат : UTF-8
Идентификатор кодека : S_TEXT/UTF8
Идентификатор кодека/Информация : UTF-8 Plain Text
Язык : English
Общее
Уникальный идентификатор : 212188322602037008247386571600069207067 (0x9FA1FC03EC386B6BB45E192641DD241B)
Полное имя : G:\Films\Game Of Thrones\Igra.Prestolov.S04.1080p\Igra.Prestolov.S04E03.1080p.mkv
Формат : Matroska
Размер файла : 3,38 Гбайт
Продолжительность : 57 м.
Общий поток : 8398 Кбит/сек
Дата кодирования : UTC 2014-04-21 13:47:17
Программа кодирования : mkvmerge v6.9.1 ('Blue Panther') 64bit built on Apr 18 2014 18:23:38
Библиотека кодирования : libebml v1.3.0 + libmatroska v1.4.1

Видео
Идентификатор : 1
Формат : AVC
Формат/Информация : Advanced Video Codec
Профиль формата : High@L4.1
Параметр CABAC формата : Да
Параметр ReFrames формата : 4 кадра
Идентификатор кодека : V_MPEG4/ISO/AVC
Продолжительность : 57 м.
Битрейт : 7847 Кбит/сек
Ширина : 1920 пикс.
Высота : 1074 пикс.
Соотношение сторон : 16:9
Частота кадров : 23,976 кадр/сек
Цветовое пространство : YUV
Подвыборка цветности : 4:2:0
Битовая глубина : 8 бит
Тип развёртки : Прогрессивная
Бит/(Пиксели*Кадры) : 0.159
Размер потока : 3,16 Гбайт (93%)
Язык : English

Аудио
Идентификатор : 2
Формат : AC-3
Формат/Информация : Audio Coding 3
Расширение режима : CM (complete main)
Идентификатор кодека : A_AC3
Продолжительность : 57 м.
Вид битрейта : Постоянный
Битрейт : 384 Кбит/сек
Каналы : 6 каналов
Расположение каналов : Front: L C R, Side: L R, LFE
Частота : 48,0 КГц
Битовая глубина : 16 бит
Метод сжатия : С потерями
Задержка видео : 27 мс.
Размер потока : 158 Мбайт (5%)
Язык : English

Текст #1
Идентификатор : 3
Формат : UTF-8
Идентификатор кодека : S_TEXT/UTF8
Идентификатор кодека/Информация : UTF-8 Plain Text
Язык : Russian

Текст #2
Идентификатор : 4
Формат : UTF-8
Идентификатор кодека : S_TEXT/UTF8
Идентификатор кодека/Информация : UTF-8 Plain Text
Язык : English
Общее
Уникальный идентификатор : 174886498650506189183079806066008499491 (0x8391EA1A2E93F517BAD8183585F7A523)
Полное имя : G:\Films\Game Of Thrones\Igra.Prestolov.S04.1080p\Igra.Prestolov.S04E04.1080p.mkv
Формат : Matroska
Размер файла : 3,23 Гбайт
Продолжительность : 55 м.
Общий поток : 8322 Кбит/сек
Дата кодирования : UTC 2014-04-28 13:11:56
Программа кодирования : mkvmerge v6.9.1 ('Blue Panther') 64bit built on Apr 18 2014 18:23:38
Библиотека кодирования : libebml v1.3.0 + libmatroska v1.4.1

Видео
Идентификатор : 1
Формат : AVC
Формат/Информация : Advanced Video Codec
Профиль формата : High@L4.1
Параметр CABAC формата : Да
Параметр ReFrames формата : 4 кадра
Идентификатор кодека : V_MPEG4/ISO/AVC
Продолжительность : 55 м.
Битрейт : 7773 Кбит/сек
Ширина : 1920 пикс.
Высота : 1074 пикс.
Соотношение сторон : 16:9
Частота кадров : 23,976 кадр/сек
Цветовое пространство : YUV
Подвыборка цветности : 4:2:0
Битовая глубина : 8 бит
Тип развёртки : Прогрессивная
Бит/(Пиксели*Кадры) : 0.157
Размер потока : 3,02 Гбайт (93%)
Язык : English

Аудио
Идентификатор : 2
Формат : AC-3
Формат/Информация : Audio Coding 3
Расширение режима : CM (complete main)
Идентификатор кодека : A_AC3
Продолжительность : 55 м.
Вид битрейта : Постоянный
Битрейт : 384 Кбит/сек
Каналы : 6 каналов
Расположение каналов : Front: L C R, Side: L R, LFE
Частота : 48,0 КГц
Битовая глубина : 16 бит
Метод сжатия : С потерями
Задержка видео : 6 мс.
Размер потока : 153 Мбайт (5%)
Язык : English

Текст #1
Идентификатор : 3
Формат : UTF-8
Идентификатор кодека : S_TEXT/UTF8
Идентификатор кодека/Информация : UTF-8 Plain Text
Язык : Russian

Текст #2
Идентификатор : 4
Формат : UTF-8
Идентификатор кодека : S_TEXT/UTF8
Идентификатор кодека/Информация : UTF-8 Plain Text
Язык : English
Общее
Уникальный идентификатор : 240754920679844843155397736133711761065 (0xB51FB60A9F65A5BD901CE9869AA60EA9)
Полное имя : G:\Films\Game Of Thrones\Igra.Prestolov.S04.1080p\Igra.Prestolov.S04E05.1080p.mkv
Формат : Matroska
Размер файла : 3,48 Гбайт
Продолжительность : 53 м.
Общий поток : 9369 Кбит/сек
Дата кодирования : UTC 2014-05-05 13:22:39
Программа кодирования : mkvmerge v6.9.1 ('Blue Panther') 64bit built on Apr 18 2014 18:23:38
Библиотека кодирования : libebml v1.3.0 + libmatroska v1.4.1

Видео
Идентификатор : 1
Формат : AVC
Формат/Информация : Advanced Video Codec
Профиль формата : High@L4.1
Параметр CABAC формата : Да
Параметр ReFrames формата : 4 кадра
Идентификатор кодека : V_MPEG4/ISO/AVC
Продолжительность : 53 м.
Битрейт : 8798 Кбит/сек
Ширина : 1920 пикс.
Высота : 1072 пикс.
Соотношение сторон : 16:9
Частота кадров : 23,976 кадр/сек
Цветовое пространство : YUV
Подвыборка цветности : 4:2:0
Битовая глубина : 8 бит
Тип развёртки : Прогрессивная
Бит/(Пиксели*Кадры) : 0.178
Размер потока : 3,27 Гбайт (94%)
Библиотека кодирования : x264 core 142 r2409 d6b4e63
Настройки программы : cabac=1 / ref=4 / deblock=1:0:0 / analyse=0x3:0x113 / me=umh / subme=8 / psy=1 / psy_rd=1.00:0.00 / mixed_ref=1 / me_range=16 / chroma_me=1 / trellis=1 / 8x8dct=1 / cqm=0 / deadzone=21,11 / fast_pskip=1 / chroma_qp_offset=-2 / threads=18 / lookahead_threads=3 / sliced_threads=0 / nr=0 / decimate=1 / interlaced=0 / bluray_compat=0 / constrained_intra=0 / bframes=3 / b_pyramid=2 / b_adapt=2 / b_bias=0 / direct=3 / weightb=1 / open_gop=0 / weightp=2 / keyint=250 / keyint_min=23 / scenecut=40 / intra_refresh=0 / rc_lookahead=50 / rc=crf / mbtree=1 / crf=17.0 / qcomp=0.60 / qpmin=0 / qpmax=69 / qpstep=4 / ip_ratio=1.40 / aq=1:1.00
Язык : English
Коэффициенты матрицы : BT.709-5, BT.1361, IEC 61966-2-4 709, SMPTE RP177

Аудио
Идентификатор : 2
Формат : AC-3
Формат/Информация : Audio Coding 3
Расширение режима : CM (complete main)
Идентификатор кодека : A_AC3
Продолжительность : 53 м.
Вид битрейта : Постоянный
Битрейт : 384 Кбит/сек
Каналы : 6 каналов
Расположение каналов : Front: L C R, Side: L R, LFE
Частота : 48,0 КГц
Битовая глубина : 16 бит
Метод сжатия : С потерями
Размер потока : 146 Мбайт (4%)
Язык : English

Текст #1
Идентификатор : 3
Формат : UTF-8
Идентификатор кодека : S_TEXT/UTF8
Идентификатор кодека/Информация : UTF-8 Plain Text
Язык : Russian

Текст #2
Идентификатор : 4
Формат : UTF-8
Идентификатор кодека : S_TEXT/UTF8
Идентификатор кодека/Информация : UTF-8 Plain Text
Язык : English
Общее
Уникальный идентификатор : 180567370481350758637690715673248737130 (0x87D802B54CFD354ABACE8570005D276A)
Полное имя : G:\Films\Game Of Thrones\Igra.Prestolov.S04.1080p\Igra.Prestolov.S04E06.1080p.mkv
Формат : Matroska
Размер файла : 3,69 Гбайт
Продолжительность : 50 м.
Общий поток : 10,4 Мбит/сек
Дата кодирования : UTC 2014-05-12 13:18:00
Программа кодирования : mkvmerge v6.9.1 ('Blue Panther') 64bit built on Apr 18 2014 18:23:38
Библиотека кодирования : libebml v1.3.0 + libmatroska v1.4.1

Видео
Идентификатор : 1
Формат : AVC
Формат/Информация : Advanced Video Codec
Профиль формата : High@L4.1
Параметр CABAC формата : Да
Параметр ReFrames формата : 4 кадра
Идентификатор кодека : V_MPEG4/ISO/AVC
Продолжительность : 50 м.
Битрейт : 9849 Кбит/сек
Ширина : 1920 пикс.
Высота : 1072 пикс.
Соотношение сторон : 16:9
Частота кадров : 23,976 кадр/сек
Цветовое пространство : YUV
Подвыборка цветности : 4:2:0
Битовая глубина : 8 бит
Тип развёртки : Прогрессивная
Бит/(Пиксели*Кадры) : 0.200
Размер потока : 3,48 Гбайт (94%)
Библиотека кодирования : x264 core 142 r2409 d6b4e63
Настройки программы : cabac=1 / ref=4 / deblock=1:0:0 / analyse=0x3:0x113 / me=umh / subme=8 / psy=1 / psy_rd=1.00:0.00 / mixed_ref=1 / me_range=16 / chroma_me=1 / trellis=1 / 8x8dct=1 / cqm=0 / deadzone=21,11 / fast_pskip=1 / chroma_qp_offset=-2 / threads=18 / lookahead_threads=3 / sliced_threads=0 / nr=0 / decimate=1 / interlaced=0 / bluray_compat=0 / constrained_intra=0 / bframes=3 / b_pyramid=2 / b_adapt=2 / b_bias=0 / direct=3 / weightb=1 / open_gop=0 / weightp=2 / keyint=250 / keyint_min=23 / scenecut=40 / intra_refresh=0 / rc_lookahead=50 / rc=crf / mbtree=1 / crf=17.0 / qcomp=0.60 / qpmin=0 / qpmax=69 / qpstep=4 / ip_ratio=1.40 / aq=1:1.00
Язык : English
Коэффициенты матрицы : BT.709-5, BT.1361, IEC 61966-2-4 709, SMPTE RP177

Аудио
Идентификатор : 2
Формат : AC-3
Формат/Информация : Audio Coding 3
Расширение режима : CM (complete main)
Идентификатор кодека : A_AC3
Продолжительность : 50 м.
Вид битрейта : Постоянный
Битрейт : 384 Кбит/сек
Каналы : 6 каналов
Расположение каналов : Front: L C R, Side: L R, LFE
Частота : 48,0 КГц
Битовая глубина : 16 бит
Метод сжатия : С потерями
Размер потока : 139 Мбайт (4%)
Язык : English

Текст #1
Идентификатор : 3
Формат : UTF-8
Идентификатор кодека : S_TEXT/UTF8
Идентификатор кодека/Информация : UTF-8 Plain Text
Язык : Russian

Текст #2
Идентификатор : 4
Формат : UTF-8
Идентификатор кодека : S_TEXT/UTF8
Идентификатор кодека/Информация : UTF-8 Plain Text
Язык : English
Общее
Уникальный идентификатор : 202248391244023216579454519266815055306 (0x98279F8FF0A785EFAF9856A3374115CA)
Полное имя : G:\Films\Game Of Thrones\Igra.Prestolov.S04.1080p\Igra.Prestolov.S04E07.1080p.mkv
Формат : Matroska
Размер файла : 3,52 Гбайт
Продолжительность : 51 м.
Общий поток : 9879 Кбит/сек
Дата кодирования : UTC 2014-05-19 13:20:22
Программа кодирования : mkvmerge v6.9.1 ('Blue Panther') 64bit built on Apr 18 2014 18:23:38
Библиотека кодирования : libebml v1.3.0 + libmatroska v1.4.1

Видео
Идентификатор : 1
Формат : AVC
Формат/Информация : Advanced Video Codec
Профиль формата : High@L4.1
Параметр CABAC формата : Да
Параметр ReFrames формата : 4 кадра
Идентификатор кодека : V_MPEG4/ISO/AVC
Продолжительность : 51 м.
Битрейт : 9298 Кбит/сек
Ширина : 1920 пикс.
Высота : 1072 пикс.
Соотношение сторон : 16:9
Частота кадров : 23,976 кадр/сек
Цветовое пространство : YUV
Подвыборка цветности : 4:2:0
Битовая глубина : 8 бит
Тип развёртки : Прогрессивная
Бит/(Пиксели*Кадры) : 0.188
Размер потока : 3,32 Гбайт (94%)
Библиотека кодирования : x264 core 142 r2431 ac76440
Настройки программы : cabac=1 / ref=4 / deblock=1:0:0 / analyse=0x3:0x113 / me=umh / subme=8 / psy=1 / psy_rd=1.00:0.00 / mixed_ref=1 / me_range=16 / chroma_me=1 / trellis=1 / 8x8dct=1 / cqm=0 / deadzone=21,11 / fast_pskip=1 / chroma_qp_offset=-2 / threads=18 / lookahead_threads=3 / sliced_threads=0 / nr=0 / decimate=1 / interlaced=0 / bluray_compat=0 / constrained_intra=0 / bframes=3 / b_pyramid=2 / b_adapt=2 / b_bias=0 / direct=3 / weightb=1 / open_gop=0 / weightp=2 / keyint=250 / keyint_min=23 / scenecut=40 / intra_refresh=0 / rc_lookahead=50 / rc=crf / mbtree=1 / crf=17.0 / qcomp=0.60 / qpmin=0 / qpmax=69 / qpstep=4 / ip_ratio=1.40 / aq=1:1.00
Язык : English
Коэффициенты матрицы : BT.709-5, BT.1361, IEC 61966-2-4 709, SMPTE RP177

Аудио
Идентификатор : 2
Формат : AC-3
Формат/Информация : Audio Coding 3
Расширение режима : CM (complete main)
Идентификатор кодека : A_AC3
Продолжительность : 51 м.
Вид битрейта : Постоянный
Битрейт : 384 Кбит/сек
Каналы : 6 каналов
Расположение каналов : Front: L C R, Side: L R, LFE
Частота : 48,0 КГц
Битовая глубина : 16 бит
Метод сжатия : С потерями
Размер потока : 140 Мбайт (4%)
Язык : English

Текст #1
Идентификатор : 3
Формат : UTF-8
Идентификатор кодека : S_TEXT/UTF8
Идентификатор кодека/Информация : UTF-8 Plain Text
Язык : Russian

Текст #2
Идентификатор : 4
Формат : UTF-8
Идентификатор кодека : S_TEXT/UTF8
Идентификатор кодека/Информация : UTF-8 Plain Text
Язык : English
Общее
Уникальный идентификатор : 244964635547904227515285594852022486803 (0xB84A790253C898D8ADD97F185E870713)
Полное имя : G:\Films\Game Of Thrones\Igra.Prestolov.S04.1080p\Igra.Prestolov.S04E08.1080p.mkv
Формат : Matroska
Размер файла : 3,51 Гбайт
Продолжительность : 52 м.
Общий поток : 9601 Кбит/сек
Дата кодирования : UTC 2014-06-02 13:19:24
Программа кодирования : mkvmerge v6.9.1 ('Blue Panther') 64bit built on Apr 18 2014 18:23:38
Библиотека кодирования : libebml v1.3.0 + libmatroska v1.4.1

Видео
Идентификатор : 1
Формат : AVC
Формат/Информация : Advanced Video Codec
Профиль формата : High@L4.1
Параметр CABAC формата : Да
Параметр ReFrames формата : 4 кадра
Идентификатор кодека : V_MPEG4/ISO/AVC
Продолжительность : 52 м.
Битрейт : 9026 Кбит/сек
Ширина : 1920 пикс.
Высота : 1072 пикс.
Соотношение сторон : 16:9
Частота кадров : 23,976 кадр/сек
Цветовое пространство : YUV
Подвыборка цветности : 4:2:0
Битовая глубина : 8 бит
Тип развёртки : Прогрессивная
Бит/(Пиксели*Кадры) : 0.183
Размер потока : 3,30 Гбайт (94%)
Библиотека кодирования : x264 core 142 r2431 ac76440
Настройки программы : cabac=1 / ref=4 / deblock=1:0:0 / analyse=0x3:0x113 / me=umh / subme=8 / psy=1 / psy_rd=1.00:0.00 / mixed_ref=1 / me_range=16 / chroma_me=1 / trellis=1 / 8x8dct=1 / cqm=0 / deadzone=21,11 / fast_pskip=1 / chroma_qp_offset=-2 / threads=18 / lookahead_threads=3 / sliced_threads=0 / nr=0 / decimate=1 / interlaced=0 / bluray_compat=0 / constrained_intra=0 / bframes=3 / b_pyramid=2 / b_adapt=2 / b_bias=0 / direct=3 / weightb=1 / open_gop=0 / weightp=2 / keyint=250 / keyint_min=23 / scenecut=40 / intra_refresh=0 / rc_lookahead=50 / rc=crf / mbtree=1 / crf=17.0 / qcomp=0.60 / qpmin=0 / qpmax=69 / qpstep=4 / ip_ratio=1.40 / aq=1:1.00
Язык : English
Коэффициенты матрицы : BT.709-5, BT.1361, IEC 61966-2-4 709, SMPTE RP177

Аудио
Идентификатор : 2
Формат : AC-3
Формат/Информация : Audio Coding 3
Расширение режима : CM (complete main)
Идентификатор кодека : A_AC3
Продолжительность : 52 м.
Вид битрейта : Постоянный
Битрейт : 384 Кбит/сек
Каналы : 6 каналов
Расположение каналов : Front: L C R, Side: L R, LFE
Частота : 48,0 КГц
Битовая глубина : 16 бит
Метод сжатия : С потерями
Размер потока : 144 Мбайт (4%)
Язык : English

Текст #1
Идентификатор : 3
Формат : UTF-8
Идентификатор кодека : S_TEXT/UTF8
Идентификатор кодека/Информация : UTF-8 Plain Text
Язык : Russian

Текст #2
Идентификатор : 4
Формат : UTF-8
Идентификатор кодека : S_TEXT/UTF8
Идентификатор кодека/Информация : UTF-8 Plain Text
Язык : English
Общее
Уникальный идентификатор : 183453495188956643970124053502565673909 (0x8A03DBA47DD31281BB6CBFEAA259EBB5)
Полное имя : G:\Films\Game Of Thrones\Igra.Prestolov.S04.1080p\Igra.Prestolov.S04E09.1080p.mkv
Формат : Matroska
Размер файла : 3,68 Гбайт
Продолжительность : 50 м.
Общий поток : 10,4 Мбит/сек
Дата кодирования : UTC 2014-06-09 13:23:46
Программа кодирования : mkvmerge v6.9.1 ('Blue Panther') 64bit built on Apr 18 2014 18:23:38
Библиотека кодирования : libebml v1.3.0 + libmatroska v1.4.1

Видео
Идентификатор : 1
Формат : AVC
Формат/Информация : Advanced Video Codec
Профиль формата : High@L4.1
Параметр CABAC формата : Да
Параметр ReFrames формата : 4 кадра
Идентификатор кодека : V_MPEG4/ISO/AVC
Продолжительность : 50 м.
Битрейт : 9824 Кбит/сек
Ширина : 1920 пикс.
Высота : 1072 пикс.
Соотношение сторон : 16:9
Частота кадров : 23,976 кадр/сек
Цветовое пространство : YUV
Подвыборка цветности : 4:2:0
Битовая глубина : 8 бит
Тип развёртки : Прогрессивная
Бит/(Пиксели*Кадры) : 0.199
Размер потока : 3,47 Гбайт (94%)
Библиотека кодирования : x264 core 142 r2431 ac76440
Настройки программы : cabac=1 / ref=4 / deblock=1:0:0 / analyse=0x3:0x113 / me=umh / subme=8 / psy=1 / psy_rd=1.00:0.00 / mixed_ref=1 / me_range=16 / chroma_me=1 / trellis=1 / 8x8dct=1 / cqm=0 / deadzone=21,11 / fast_pskip=1 / chroma_qp_offset=-2 / threads=18 / lookahead_threads=3 / sliced_threads=0 / nr=0 / decimate=1 / interlaced=0 / bluray_compat=0 / constrained_intra=0 / bframes=3 / b_pyramid=2 / b_adapt=2 / b_bias=0 / direct=3 / weightb=1 / open_gop=0 / weightp=2 / keyint=250 / keyint_min=23 / scenecut=40 / intra_refresh=0 / rc_lookahead=50 / rc=crf / mbtree=1 / crf=17.0 / qcomp=0.60 / qpmin=0 / qpmax=69 / qpstep=4 / ip_ratio=1.40 / aq=1:1.00
Язык : English
Коэффициенты матрицы : BT.709-5, BT.1361, IEC 61966-2-4 709, SMPTE RP177

Аудио
Идентификатор : 2
Формат : AC-3
Формат/Информация : Audio Coding 3
Расширение режима : CM (complete main)
Идентификатор кодека : A_AC3
Продолжительность : 50 м.
Вид битрейта : Постоянный
Битрейт : 384 Кбит/сек
Каналы : 2 канала
Расположение каналов : Front: L R
Частота : 48,0 КГц
Битовая глубина : 16 бит
Метод сжатия : С потерями
Размер потока : 139 Мбайт (4%)
Язык : English

Текст #1
Идентификатор : 3
Формат : UTF-8
Идентификатор кодека : S_TEXT/UTF8
Идентификатор кодека/Информация : UTF-8 Plain Text
Язык : Russian

Текст #2
Идентификатор : 4
Формат : UTF-8
Идентификатор кодека : S_TEXT/UTF8
Идентификатор кодека/Информация : UTF-8 Plain Text
Язык : English
Общее
Уникальный идентификатор : 232667361664132031322163482540447927630 (0xAF0A1A989AA18FE98CF8C8D2A3888D4E)
Полное имя : G:\Films\Game Of Thrones\Igra.Prestolov.S04.1080p\Igra.Prestolov.S04E10.1080p.mkv
Формат : Matroska
Размер файла : 4,35 Гбайт
Продолжительность : 1 ч. 5 м.
Общий поток : 9537 Кбит/сек
Дата кодирования : UTC 2014-06-16 12:56:08
Программа кодирования : mkvmerge v6.9.1 ('Blue Panther') 64bit built on Apr 18 2014 18:23:38
Библиотека кодирования : libebml v1.3.0 + libmatroska v1.4.1

Видео
Идентификатор : 1
Формат : AVC
Формат/Информация : Advanced Video Codec
Профиль формата : High@L4.1
Параметр CABAC формата : Да
Параметр ReFrames формата : 4 кадра
Идентификатор кодека : V_MPEG4/ISO/AVC
Продолжительность : 1 ч. 5 м.
Битрейт : 8963 Кбит/сек
Ширина : 1920 пикс.
Высота : 1072 пикс.
Соотношение сторон : 16:9
Частота кадров : 23,976 кадр/сек
Цветовое пространство : YUV
Подвыборка цветности : 4:2:0
Битовая глубина : 8 бит
Тип развёртки : Прогрессивная
Бит/(Пиксели*Кадры) : 0.182
Размер потока : 4,09 Гбайт (94%)
Библиотека кодирования : x264 core 142 r2431 ac76440
Настройки программы : cabac=1 / ref=4 / deblock=1:0:0 / analyse=0x3:0x113 / me=umh / subme=8 / psy=1 / psy_rd=1.00:0.00 / mixed_ref=1 / me_range=16 / chroma_me=1 / trellis=1 / 8x8dct=1 / cqm=0 / deadzone=21,11 / fast_pskip=1 / chroma_qp_offset=-2 / threads=18 / lookahead_threads=3 / sliced_threads=0 / nr=0 / decimate=1 / interlaced=0 / bluray_compat=0 / constrained_intra=0 / bframes=3 / b_pyramid=2 / b_adapt=2 / b_bias=0 / direct=3 / weightb=1 / open_gop=0 / weightp=2 / keyint=250 / keyint_min=23 / scenecut=40 / intra_refresh=0 / rc_lookahead=50 / rc=crf / mbtree=1 / crf=17.0 / qcomp=0.60 / qpmin=0 / qpmax=69 / qpstep=4 / ip_ratio=1.40 / aq=1:1.00
Язык : English
Коэффициенты матрицы : BT.709-5, BT.1361, IEC 61966-2-4 709, SMPTE RP177

Аудио
Идентификатор : 2
Формат : AC-3
Формат/Информация : Audio Coding 3
Расширение режима : CM (complete main)
Идентификатор кодека : A_AC3
Продолжительность : 1 ч. 5 м.
Вид битрейта : Постоянный
Битрейт : 384 Кбит/сек
Каналы : 6 каналов
Расположение каналов : Front: L C R, Side: L R, LFE
Частота : 48,0 КГц
Битовая глубина : 16 бит
Метод сжатия : С потерями
Размер потока : 179 Мбайт (4%)
Язык : English

Текст #1
Идентификатор : 3
Формат : UTF-8
Идентификатор кодека : S_TEXT/UTF8
Идентификатор кодека/Информация : UTF-8 Plain Text
Язык : Russian

Текст #2
Идентификатор : 4
Формат : UTF-8
Идентификатор кодека : S_TEXT/UTF8
Идентификатор кодека/Информация : UTF-8 Plain Text
Язык : English
Скриншоты:


Время раздачи: 24/7
[NNM-Club.me]_Igra.Prestolov.S04.1080p.torrent
 Торрент: Платиновая раздача  Зарегистрирован
 
Скачать


Примагнититься
 Зарегистрирован:   16 Июн 2014 16:40:03
 Размер:   35,2 GB  (
 Рейтинг:   4,8 (Голосов: 440)
 Поблагодарили:   1369
 Проверка:   Оформление проверено модератором 16 Июн 2014 18:33:04
Как cкачать  ·  Как раздать  ·  Правильно оформить  ·  Поднять ратио!  
КВА3АР
Uploader 100+
Стаж: 5 лет 7 мес.
Сообщений: 160
Ratio: 431,23
Раздал: 132,5 TB
100%
krevedko.png
Одобрямс. Раздаёмс.
Dellow
Стаж: 4 года 10 мес.
Сообщений: 6
Ratio: 2,891
100%
Вот это я понимаю.
По-моему, единственный, из ныне живущих, нормальный трекер.
Спасибо за оперативную раздачу!
Deadm​an777​7​
Стаж: 6 лет 3 мес.
Сообщений: 3
Ratio: 10,601
0%
спасибо большое, в таком качестве смотреть одно удовольствие
shika1397
Стаж: 7 лет 7 мес.
Сообщений: 2
Ratio: 0,735
100%
Большое спасибо, буду следить за обновлениями.
Бригун
Стаж: 8 лет 2 мес.
Сообщений: 70
Ratio: 15,482
4.55%
russia.gif
хорошее качество спасибо раздающему!
GL94
Стаж: 8 лет 1 мес.
Сообщений: 17
Ratio: 8,546
20.9%
Оперативно. Спасибо за работу.
omggga
Стаж: 4 года 6 мес.
Сообщений: 6
Ratio: 1,716
100%
Спасибо за оперативную работу! :)
Nico
Стаж: 5 лет 2 мес.
Сообщений: 1053
Ratio: 121,928
Раздал: 95,82 TB
100%
Откуда: Hamburg
nnm-club.gif
Оригинал он и есть оригинал! я тож не очень в английском, но просто тупо можно и догодатса да и по сюжету понять что происходит да ещё тиры(рус) и отключаемы, 100% хорошее качество спасибо раздающему!
dimanski
Стаж: 10 лет 1 мес.
Сообщений: 130
Ratio: 9,975
100%
Описание что ты делаешь прекрати

===
время действия напоминает наше родное Средневековье.
===

Признавайтесь кто тут родом из сведневековья?
po6 ®
Стаж: 8 лет 9 мес.
Сообщений: 407
Ratio: 394,741
Поблагодарили: 13852
20.54%
"Наше родное" - значит бывшее в нашем реальном мире, а не вымышленном:)
Фотиния В
Стаж: 5 лет 4 мес.
Сообщений: 11
Ratio: 7,015
46.75%
Большое СПАСИБО.....так здорово, что вы один из первых дарите каждую серию...надо же как затянул этот фильм, жду с нетерпением каждый выход :)
Bruzon
Стаж: 8 лет 1 мес.
Сообщений: 147
Ratio: 22,941
86.9%
russia.gif
Спасибо! Смотреть в оригинальной озвучке одно удовольствие - никаких тебе неточных и фальшивых интонаций наших дублеров) Все, как есть - натуральные голоса и звуки!
QerceG
Стаж: 6 лет 8 мес.
Сообщений: 19
Ratio: 1,75
1.52%
блииин ну почему все заканчивается на таких самых,самых,самых моментах:(( ну нафиг качаю книжки и читаю:) в пень ждать очередной мега концовки (я про 6 серию) Сериал шикарный!!!
Hipster
Стаж: 10 лет 6 мес.
Сообщений: 80
Ratio: 2,471
Поблагодарили: 256
95.1%
russia.gif
Спасибо большое за хороший рип с оригинальной дорожкой и английскими сабами. Сам качну и для других посидирую :)
Показать сообщения:   
Начать новую тему   Ответить на тему    Торрент-трекер NNM-Club -> Зарубежные сериалы -> Сериалы без перевода Часовой пояс: GMT + 3
Страницы:  1, 2, 3  След.
Страница 1 из 3