Классический форум-трекер
canvas not supported
Нас вместе: 4 068 675

Никто мне не хозяин / Mig ager ingen (2013) HDRip [VO]


 
 
RSS
Начать новую тему   Ответить на тему    Торрент-трекер NNM-Club -> Зарубежное кино -> Зарубежные Фильмы (HD*Rip/LQ, DVDRip, SATRip, VHSRip)
Автор Сообщение
Sедой ®
Стаж: 8 лет 6 мес.
Сообщений: 3059
Ratio: 5117,534
Поблагодарили: 643082
100%
Откуда: Донецк
Никто мне не хозяин / Mig ager ingen (2013) HDRip
Год выпуска: 2013
Производство: Швеция
Жанр: Драма
Перевод: Одноголосый закадровый, любительский
Озвучка / Автор перевода: Pashaup
Субтитры: Отсутствуют

Режиссер: Кьелл-Аке Андерссон
Продюсер: Джессика Аск
Актеры: Микаэл Персбрандт, Сандра Андреис, Таня Лорентцон, Ханна Альстрём, Пинг Мон Х. Валлен, Сага Самуэльсон, Стен Льюнггрен, Клара Христианссон

Описание фильма:
Лизе - пять лет. В свои ранние годы единственным близким и родным человеком для нее остается отец. Ведь мать бросила их. Несмотря на то, что общение с отцом сводится к минимуму, Лиза любит его. Она даже старается не замечать пристрастия отца к спиртному, хотя не заметить это очень сложно. Но Лиза, вопреки всему, стремится все делать так, чтобы отец оставался для нее настоящим героем. Спустя время судьба их семьи все же меняется благодаря Лизе...



Дата мировой премьеры: 7 ноября 2013

Продолжительность: 01:44:37
Качество видео: HDRip

Видеокодек: Xvid
Битрейт видео: ~1536 Kbit/s
Размер кадра: 720 x 304
Аудиокодек: AC3 5.1
Битрейт аудио: 448 Kbit/s
Код:
Общее
Полное имя                       : D:\Торренты\Никто мне не хозяин.2013.HDRip.avi
Формат                           : AVI
Формат/Информация                : Audio Video Interleave
Размер файла                     : 1,46 Гбайт
Продолжительность                : 1 ч. 44 м.
Общий поток                      : 1993 Кбит/сек
Программа кодирования            : VirtualDubMod 1.5.10.3 (build 2550/release)
Библиотека кодирования           : VirtualDubMod build 2550/release

Видео
Идентификатор                    : 0
Формат                           : MPEG-4 Visual
Профиль формата                  : Advanced Simple@L5
Параметр BVOP формата            : 1
Параметр QPel формата            : Нет
Параметр GMC формата             : Без точки перехода
Параметр матрицы формата         : Выборочная
Идентификатор кодека             : XVID
Идентификатор кодека/Подсказка   : XviD
Продолжительность                : 1 ч. 44 м.
Битрейт                          : 1536 Кбит/сек
Ширина                           : 720 пикс.
Высота                           : 304 пикс.
Соотношение сторон               : 2,35:1
Частота кадров                   : 25,000 кадр/сек
Цветовое пространство            : YUV
Подвыборка цветности             : 4:2:0
Битовая глубина                  : 8 бит
Тип развёртки                    : Прогрессивная
Метод сжатия                     : С потерями
Бит/(Пиксели*Кадры)              : 0.281
Размер потока                    : 1,12 Гбайт (77%)
Библиотека кодирования           : XviD 1.2.1 (UTC 2008-12-04)

Аудио
Идентификатор                    : 1
Формат                           : AC-3
Формат/Информация                : Audio Coding 3
Расширение режима                : CM (complete main)
Идентификатор кодека             : 2000
Продолжительность                : 1 ч. 44 м.
Вид битрейта                     : Постоянный
Битрейт                          : 448 Кбит/сек
Каналы                           : 6 каналов
Расположение каналов             : Front: L C R, Side: L R, LFE
Частота                          : 48,0 КГц
Битовая глубина                  : 16 бит
Метод сжатия                     : С потерями
Размер потока                    : 335 Мбайт (22%)
Выравнивание                     : Разделение по промежуткам
Продолжительность промежутка     : 40  мс. (1,00 видеокадр)
Время предзагрузки промежутка    : 500 ms

Скриншоты:

Время раздачи: 24/7 по возможности
[NNM-Club.me]_Nikto mne ne hozyain.2013.HDRip.avi.torrent
 Торрент:   Зарегистрирован
 
Зарегистрируйтесь и скачайте торрент!
15 KB
Free Leech
Примагнититься
 Зарегистрирован:   16 Апр 2014 12:06:23
 Размер:   1,46 GB  (
 Рейтинг:   4,5 (Голосов: 26)
 Поблагодарили:   164
 Проверка:   Оформление проверено модератором 16 Апр 2014 13:43:00
Как cкачать  ·  Как раздать  ·  Правильно оформить  ·  Поднять ратио!  
Lox2010
Стаж: 8 лет 4 мес.
Сообщений: 682
Ratio: 2,101
100%
nnm-club.gif
Шведский фильм, типа "За Маркса", но БЭЗ трагического конца.
Игра хорошая.
mr_noob
Стаж: 7 лет 11 мес.
Сообщений: 950
Ratio: 140,479
100%
russia.gif
игра хорошая, но фильм - разложившийся помет морских птиц и летучих мышей, применяемый как азотное и фосфорное удобрение!
сценарий - разложившийся помет морских птиц и летучих мышей, применяемый как азотное и фосфорное удобрение!
ущербное качество евросценариев удручает

_________________
Like no other...
BULDOZER
Стаж: 8 лет 6 мес.
Сообщений: 331
Ratio: 40,478
Раздал: 30,49 TB
100%
Откуда: вільна Україна
ukraine.gif
mr_noob писал(а): Перейти к сообщению
игра хорошая

Чиво чивооо???
mr_noob писал(а): Перейти к сообщению
но фильм - разложившийся помет морских птиц и летучих мышей, применяемый как азотное и фосфорное удобрение!
сценарий - разложившийся помет морских птиц и летучих мышей, применяемый как азотное и фосфорное удобрение!
ущербное качество евросценариев удручает

Во! Ну, это ж другое дело. Хряпнем по маленькой, ватный товарищ...

_________________
А хорошо бы после трубы Страшного суда вступили саксофоны... ©
Еж0316
Стаж: 8 лет 2 мес.
Сообщений: 493
Ratio: 4,409
0%
Швеция ни одного нормального фильма еще не сняла.
tutub333
Стаж: 3 года 4 мес.
Сообщений: 101
100%
"Шведский социализм" (на самом деле - запиаренный монополистический капитализм) во всей красе! :D
Показать сообщения:   
Начать новую тему   Ответить на тему    Торрент-трекер NNM-Club -> Зарубежное кино -> Зарубежные Фильмы (HD*Rip/LQ, DVDRip, SATRip, VHSRip) Часовой пояс: GMT + 3
Страница 1 из 1