Интеллигентный торрент-трекер
Нас вместе: 3 602 522 | Новости торрент-трекера | Как тут скачивать? | Как раздавать торренты? | Правила оформления

Gareth Emery - Drive (2014) [FLAC|Lossless|WEB-DL]<Trance, Progressive House>


 
 
RSS
Начать новую тему   Ответить на тему    Торрент-трекер NNM-Club -> Electronic -> Trance (Lossless)
Предыдущая тема :: Следующая тема  
Автор Сообщение
Fraudy ®
RG Музыки
 


Стаж: 4 года 7 месяцев
Сообщений: 1386
Ratio: 74,426
Раздал: 26,18 TB
Поблагодарили: 30979
100%
ukraine.gif

Сообщение 03 Апр 2014 23:52:16  Заголовок сообщения: Gareth Emery - Drive (2014) [FLAC|Lossless|WEB-DL]<Trance, Progressive House> Ответить с цитатой

Gareth Emery - Drive (2014)



Год: 2014
Жанр: Trance, Progressive House
Лейбл: Garuda
Каталог#: GARUDACD 007DC
Продолжительность: 01:44:26

Кодек: FLAC
Битрейт: Lossless|WEB-DL
Тип рипа: tracks+.cue

Треклист:

01. Gareth Emery - Entrada (04:34)
02. Gareth Emery feat. Christina Novelli - Dynamite (04:52)
03. Gareth Emery feat. Gavin Beach - Eye Of The Storm (04:05)
04. Gareth Emery feat. Ben Gold - Javelin (04:37)
05. Gareth Emery feat. LJ Ayrten - Beautiful Rage (05:17)
06. Gareth Emery feat. Asia Whiteacre - Million Years (04:03)
07. Gareth Emery - Firebird (05:09)
08. Gareth Emery feat. Roxanne Emery - Soldier (03:23)
09. Gareth Emery feat. Krewella - Lights & Thunder (04:40)
10. Gareth Emery feat. Bo Bruce - U (04:20)
11. Gareth Emery - Long Way Home (07:25)
12. Gareth Emery - Drive (Continuous Mix) (51:56)


Код:

-----------------------

DON'T MODIFY THIS FILE

-----------------------

PERFORMER: auCDtect Task Manager, ver. 1.6.0 RC1 build 1.6.0.1
Copyright (c) 2008-2010 y-soft. All rights reserved
http://y-soft.org

ANALYZER: auCDtect: CD records authenticity detector, version 0.8.2
Copyright (c) 2004 Oleg Berngardt. All rights reserved.
Copyright (c) 2004 Alexander Djourik. All rights reserved.

FILE: 12. Gareth Emery - Drive (Continuous Mix).flac
  Size: 399952960 Hash: A4CFFE541172A11C7F75176A6BBDB67F Accuracy: -m0
  Conclusion: CDDA 100%
  Signature: 1263DA130BCC1366B03A7F8105835EB38FD245E2
FILE: 11. Gareth Emery - Long Way Home (Original Mix).flac
  Size: 50331673 Hash: 5AB30B86B2721450C52C5D60E6599D0A Accuracy: -m0
  Conclusion: CDDA 100%
  Signature: 1696F04FF32AA08329F24EDA003CF29325941ECF
FILE: 10. Gareth Emery feat. Bo Bruce - U (Original Mix).flac
  Size: 32726634 Hash: 6588350CEF3205CEACD1B5F662171C6F Accuracy: -m0
  Conclusion: CDDA 100%
  Signature: 4DFBFAB299E15D0FCC0091C829AF48AF9BF58260
FILE: 09. Gareth Emery feat. Krewella - Lights & Thunder (Original Mix).flac
  Size: 39078709 Hash: FD49BF172F5C3925E13D438D6DF217E0 Accuracy: -m0
  Conclusion: CDDA 100%
  Signature: 56FD5A4D26DE56750164D84491D4D18DC0A15188
FILE: 08. Gareth Emery feat. Roxanne Emery - Soldier (Original Mix).flac
  Size: 26837617 Hash: 78B08B616A98A5D005B6DF328318A09C Accuracy: -m0
  Conclusion: CDDA 100%
  Signature: 779D6A178AD46C9C027FBA6BAB7107DF916E268A
FILE: 07. Gareth Emery - Firebird (Original Mix).flac
  Size: 44484176 Hash: 5BC283433949C0FC91FFCADF03730A20 Accuracy: -m0
  Conclusion: CDDA 100%
  Signature: B4C8D1069FD3DFC6A46549608B99C0870D9387B7
FILE: 06. Gareth Emery feat. Asia Whiteacre - Million Years (Original Mix).flac
  Size: 30075156 Hash: A106389389D050A4AA619BAD2E858693 Accuracy: -m0
  Conclusion: CDDA 100%
  Signature: B0B658171A0CF7FC23507D5263D5E3A9C07FD2C0
FILE: 05. Gareth Emery feat. LJ Ayrten - Beautiful Rage (Original Mix).flac
  Size: 39462470 Hash: DE7BB8952E26D0C6CA4F35CA23902613 Accuracy: -m0
  Conclusion: CDDA 100%
  Signature: CDFF2E3792E650825D3FD2B5DA1A2ABA8491A539
FILE: 04. Gareth Emery feat. Ben Gold - Javelin (Original Mix).flac
  Size: 36429688 Hash: 7F48BBFD1FFDAD6101EBDCEC22CC2AD3 Accuracy: -m0
  Conclusion: CDDA 100%
  Signature: E6F859F36FBD5F62B703C714201772A546E78301
FILE: 03. Gareth Emery feat. Gavin Beach - Eye Of The Storm (Original Mix).flac
  Size: 31644919 Hash: C4D512A1E30A446611D0376DF3151FF2 Accuracy: -m0
  Conclusion: CDDA 100%
  Signature: E33A9D646DDF42F36EEB9F8C7E6BB007DFC0FD0D
FILE: 02. Gareth Emery feat. Christina Novelli - Dynamite (Original Mix).flac
  Size: 36762180 Hash: 8DD8B61493BFC9742C3055D603756E39 Accuracy: -m0
  Conclusion: CDDA 100%
  Signature: 48DE878DCC5369DFD8A7CFC3D5998F6C61C25BB2
FILE: 01. Gareth Emery - Entrada (Original Mix).flac
  Size: 36578335 Hash: BE928CFF1580A63BF254FD1997B76479 Accuracy: -m0
  Conclusion: CDDA 100%
  Signature: CA3D5F953C0C43409CFCB3A58C0947E3E14FCEEC
Код:

PERFORMER "Gareth Emery"
TITLE "Drive [GARUDACD007DC]"
REM DATE 2014
REM DISCNUMBER 1
REM TOTALDISCS 1
REM GENRE "Progressive House"
FILE "01. Gareth Emery - Entrada (Original Mix).flac" WAVE
  TRACK 01 AUDIO
    PERFORMER "Gareth Emery"
    TITLE "Entrada (Original Mix)"
    INDEX 01 00:00:00
FILE "02. Gareth Emery feat. Christina Novelli - Dynamite (Original Mix).flac" WAVE
  TRACK 02 AUDIO
    PERFORMER "Gareth Emery feat. Christina Novelli"
    TITLE "Dynamite (Original Mix)"
    INDEX 01 00:00:00
FILE "03. Gareth Emery feat. Gavin Beach - Eye Of The Storm (Original Mix).flac" WAVE
  TRACK 03 AUDIO
    PERFORMER "Gareth Emery feat. Gavin Beach"
    TITLE "Eye Of The Storm (Original Mix)"
    INDEX 01 00:00:00
FILE "04. Gareth Emery feat. Ben Gold - Javelin (Original Mix).flac" WAVE
  TRACK 04 AUDIO
    PERFORMER "Gareth Emery feat. Ben Gold"
    TITLE "Javelin (Original Mix)"
    INDEX 01 00:00:00
FILE "05. Gareth Emery feat. LJ Ayrten - Beautiful Rage (Original Mix).flac" WAVE
  TRACK 05 AUDIO
    PERFORMER "Gareth Emery feat. LJ Ayrten"
    TITLE "Beautiful Rage (Original Mix)"
    INDEX 01 00:00:00
FILE "06. Gareth Emery feat. Asia Whiteacre - Million Years (Original Mix).flac" WAVE
  TRACK 06 AUDIO
    PERFORMER "Gareth Emery feat. Asia Whiteacre"
    TITLE "Million Years (Original Mix)"
    INDEX 01 00:00:00
FILE "07. Gareth Emery - Firebird (Original Mix).flac" WAVE
  TRACK 07 AUDIO
    PERFORMER "Gareth Emery"
    TITLE "Firebird (Original Mix)"
    INDEX 01 00:00:00
FILE "08. Gareth Emery feat. Roxanne Emery - Soldier (Original Mix).flac" WAVE
  TRACK 08 AUDIO
    PERFORMER "Gareth Emery feat. Roxanne Emery"
    TITLE "Soldier (Original Mix)"
    INDEX 01 00:00:00
FILE "09. Gareth Emery feat. Krewella - Lights & Thunder (Original Mix).flac" WAVE
  TRACK 09 AUDIO
    PERFORMER "Gareth Emery feat. Krewella"
    TITLE "Lights & Thunder (Original Mix)"
    INDEX 01 00:00:00
FILE "10. Gareth Emery feat. Bo Bruce - U (Original Mix).flac" WAVE
  TRACK 10 AUDIO
    PERFORMER "Gareth Emery feat. Bo Bruce"
    TITLE "U (Original Mix)"
    INDEX 01 00:00:00
FILE "11. Gareth Emery - Long Way Home (Original Mix).flac" WAVE
  TRACK 11 AUDIO
    PERFORMER "Gareth Emery"
    TITLE "Long Way Home (Original Mix)"
    INDEX 01 00:00:00
FILE "12. Gareth Emery - Drive (Continuous Mix).flac" WAVE
  TRACK 12 AUDIO
    PERFORMER "Gareth Emery"
    TITLE "Drive (Continuous Mix)"
    INDEX 01 00:00:00




Время раздачи: До 5 сидов
[NNM-Club.me]_Gareth Emery - Drive - 2014 - FLAC.torrent
 Торрент:   Зарегистрирован
 
Примагнититься

Зарегистрируйтесь и скачайте торрент!
 Зарегистрирован:   03 Апр 2014 23:52:16
 Размер:   767 MB  (
 Рейтинг:   4,8 (Голосов: 16)
 Поблагодарили:   49
 Проверка:   Оформление проверено модератором 04 Апр 2014 06:41:14
Как cкачать  ·  Как раздать  ·  Правильно оформить  ·  Поднять ратио!  
Fraudy ®
RG Музыки
 


Стаж: 4 года 7 месяцев
Сообщений: 1386
Ratio: 74,426
Раздал: 26,18 TB
Поблагодарили: 30979
100%
ukraine.gif

Сообщение 04 Апр 2014 00:00:14  Заголовок сообщения: Ответить с цитатой

Gareth Emery - Drive (2014) MP3
Показать сообщения:   
Начать новую тему   Ответить на тему    Торрент-трекер NNM-Club -> Electronic -> Trance (Lossless) Часовой пояс: GMT + 4
Страница 1 из 1