Интеллигентный торрент-трекер
Нас вместе: 3 717 053 | Новости торрент-трекера | Как тут скачивать? | Как раздавать торренты? | Правила оформления

Секретные материалы Мстителей: Черная Вдова и Каратель / Avengers Confidential: Black Widow & Punisher (2014) HDRip [EN]


 
 
RSS
Начать новую тему   Ответить на тему    Торрент-трекер NNM-Club -> Мультфильмы -> Зарубежные Мультфильмы (HD*Rip/LQ, DVDRip, SATRip, VHSRip)
Предыдущая тема :: Следующая тема  
Автор Сообщение
karfa​gen19​75​ ®


Стаж: 3 года 9 месяцев
Сообщений: 407
Ratio: 22,305
Раздал: 12,52 TB
Поблагодарили: 20874
100%
Откуда: Планета Земля
russia.gif

Сообщение 25 Мар 2014 01:15:16  Заголовок сообщения: Секретные материалы Мстителей: Черная Вдова и Каратель / Avengers Confidential: Black Widow & Punisher (2014) HDRip Ответить с цитатой

Секретные материалы Мстителей: Черная Вдова и Каратель / Avengers Confidential: Black Widow & Punisher (2014) HDRip [EN]
Год выпуска: 2014
Жанр: Компьютерная анимация
Производство: США, Япония / Madhouse, Marvel Comics

Описание:
После вмешательства в сверхсекретные миссии ЩИТа Каратель попадает под контроль Черной вдовы. По приказу Ника Фьюри они отправляются на миссию по борьбе с глобальной террористической организацией Левиафан, которая планирует продать украденные у ЩИТа технологии любому, кто больше заплатит. Теперь убийца и шпионка должны работать вместе, чтобы предотвратить попадание информации не в те руки. На чашу весов положена судьба мира и Мстителей.

Режиссер: Кенити Симидзу
Персонажи: Дженнифер Карпентер, Брайан Блум, Джон Бентли, Грант Джордж, Кайл Хеберт, Кари Уолгрен, Эрик Бауза, Джейби Бланк, Фред Татаскьор, Мэттью Мерсер...



Дата мировой премьеры: 11 марта 2014
Дата выхода DVD релиза: 20 мая 2014, «Columbia/Sony»

Продолжительность: 01:22:40
Качество видео: HDRip [SaM]

Перевод: Отсутствует
Язык: Английский [EN]
Субтитры: Отсутствуют

Видеокодек: Xvid
Битрейт видео: ~1914 Кбит/сек
Размер кадра: 720x400
Аудиокодек: AC3, 6 ch
Битрейт аудио: 448 Кбит/сек
Общее
Полное имя : H:\Avengers.Confidential.Black.Widow.And.Punisher.2014.XviD.HDRip.avi
Формат : AVI
Формат/Информация : Audio Video Interleave
Размер файла : 1,37 Гбайт
Продолжительность : 1 ч. 22 м.
Общий поток : 2371 Кбит/сек
Библиотека кодирования : VirtualDub build 32618/release

Видео
Идентификатор : 0
Формат : MPEG-4 Visual
Профиль формата : Advanced Simple@L5
Параметр BVOP формата : 2
Параметр QPel формата : Нет
Параметр GMC формата : Без точки перехода
Параметр матрицы формата : Default (H.263)
Режим смешивания : Сжатый битовый поток
Идентификатор кодека : XVID
Идентификатор кодека/Подсказка : XviD
Продолжительность : 1 ч. 22 м.
Битрейт : 1914 Кбит/сек
Ширина : 720 пикселей
Высота : 400 пикселей
Соотношение сторон : 16:9
Частота кадров : 23,976 кадра/сек
Цветовое пространство : YUV
Субдискретизация насыщенности : 4:2:0
Битовая глубина : 8 бит
Тип развёртки : Прогрессивная
Метод сжатия : С потерями
Бит/(Пиксели*Кадры) : 0.277
Размер потока : 1,11 Гбайт (81%)
Библиотека кодирования : XviD 64

Аудио
Идентификатор : 1
Формат : AC-3
Формат/Информация : Audio Coding 3
Расширение режима : CM (complete main)
Параметр Endianness формата : Big
Идентификатор кодека : 2000
Продолжительность : 1 ч. 22 м.
Вид битрейта : Постоянный
Битрейт : 448 Кбит/сек
Каналы : 6 каналов
Расположение каналов : Front: L C R, Side: L R, LFE
Частота : 48,0 КГц
Битовая глубина : 16 бит
Метод сжатия : С потерями
Размер потока : 265 Мбайт (19%)
Выравнивание : Соединение по промежуткам
Продолжительность промежутка : 42 мс. (1,00 видеокадр)
Время предзагрузки промежутка : 512 мс.
Скриншоты:



Время раздачи: 24/7 (круглосуточно)
[NNM-Club.me]_Avengers.Confidential.Black.Widow.And.Punisher.2014.XviD.HDRip.avi.torrent
 Торрент:   Зарегистрирован
 
Примагнититься

Зарегистрируйтесь и скачайте торрент!
 Зарегистрирован:   25 Мар 2014 01:15:16
 Размер:   1,37 GB  (
 Рейтинг:   4 (Голосов: 13)
 Поблагодарили:   46
 Проверка:   Оформление проверено модератором 31 Мар 2014 12:51:38
Как cкачать  ·  Как раздать  ·  Правильно оформить  ·  Поднять ратио!  


Последний раз редактировалось: karfagen1975 (25 Мар 2014 22:37:46), всего редактировалось 2 раз(а)
AC_pirate


Стаж: 6 месяцев 5 дней
Сообщений: 15
Ratio: 257,031
Раздал: 3,051 TB
83.33%
Откуда: Нассау
pirates.png

Сообщение 28 Мар 2014 15:46:13  Заголовок сообщения: Ответить с цитатой

Низкое разрешение. Да и звук не самый лучший. Лучше с Pirate Bay скачать, раз всё равно без перевода. Там хоть Full HD будет с DTS-звуком.
Показать сообщения:   
Начать новую тему   Ответить на тему    Торрент-трекер NNM-Club -> Мультфильмы -> Зарубежные Мультфильмы (HD*Rip/LQ, DVDRip, SATRip, VHSRip) Часовой пояс: GMT + 4
Страница 1 из 1