Классический форум-трекер
canvas not supported
Нас вместе: 4 068 665

Найти мужа в большом городе (2014) SATRip [1-4 серии из 4]


 
 
RSS
Начать новую тему   Ответить на тему    Торрент-трекер NNM-Club -> Отечественные сериалы
Автор Сообщение
Sедой ®
Стаж: 8 лет 6 мес.
Сообщений: 3059
Ratio: 5117,534
Поблагодарили: 643082
100%
Откуда: Донецк
Найти мужа в большом городе (2014) SATRip [1-4 серии из 4]
Русское название: Найти мужа в большом городе
Выпущено: Россия
Год выпуска: 2014
Жанр: Мелодрама
Перевод: Оригинал (Русский)
Субтитры: Отсутствуют

Режиссер: Екатерина Шагалова
Актеры: Алиса Хазанова, Любовь Толкалина, Ярослав Бойко, Юлия Сорокина, Валентин Самохин, Вениамин Смехов, Ирина Рахманова, Анна Капалева

Описание фильма:
Это история молодой переводчицы Лизы (Алиса Хазанова), у которой как-то не получается выйти замуж. Женихов вроде бы предостаточно. Но нет одного единственного... Решение проблемы берет на себя пробивная подруга Маша (Любовь Толкалина). Она только не советует Лизе «западать» на преуспевающего архитектора Малышева (Ярослав Бойко) - «не твой формат». Но этот недостижимый Малышев и нравится Лизе больше всех.

Продолжительность: 4 х ~ 00:52:03 серия
Качество видео: SATRip

Видеокодек: Xvid
Битрейт видео: ~1409 Kbit/s
Размер кадра: 720 x 400
Аудиокодек: MP3, 2.0
Битрейт аудио: 192 Kbit/s
Общее
Полное имя : D:\Торренты\ФИЛЬМЫ торента\Найти мужа в большом городе.2014.SATRip\Найти мужа в большом городе.01.avi
Формат : AVI
Формат/Информация : Audio Video Interleave
Размер файла : 600 Мбайт
Продолжительность : 52 м.
Общий поток : 1611 Кбит/сек
Программа кодирования : VirtualDubModRus 1.5.10.2 (build 2542/release)
Библиотека кодирования : VirtualDubMod build 2542/release

Видео
Идентификатор : 0
Формат : MPEG-4 Visual
Профиль формата : Advanced Simple@L5
Параметр BVOP формата : 2
Параметр QPel формата : Нет
Параметр GMC формата : Без точки перехода
Параметр матрицы формата : Default (H.263)
Идентификатор кодека : XVID
Идентификатор кодека/Подсказка : XviD
Продолжительность : 52 м.
Битрейт : 1409 Кбит/сек
Ширина : 720 пикс.
Высота : 400 пикс.
Соотношение сторон : 16:9
Частота кадров : 25,000 кадр/сек
Цветовое пространство : YUV
Подвыборка цветности : 4:2:0
Битовая глубина : 8 бит
Тип развёртки : Прогрессивная
Метод сжатия : С потерями
Бит/(Пиксели*Кадры) : 0.196
Размер потока : 525 Мбайт (87%)
Библиотека кодирования : XviD 1.2.1 (UTC 2008-12-04)

Аудио
Идентификатор : 1
Формат : MPEG Audio
Версия формата : Version 1
Профиль формата : Layer 3
Идентификатор кодека : 55
Идентификатор кодека/Подсказка : MP3
Продолжительность : 52 м.
Вид битрейта : Постоянный
Битрейт : 192 Кбит/сек
Каналы : 2 канала
Частота : 48,0 КГц
Метод сжатия : С потерями
Размер потока : 71,5 Мбайт (12%)
Выравнивание : Соединение по промежуткам
Продолжительность промежутка : 40 мс. (1,00 видеокадр)
Время предзагрузки промежутка : 504 ms
Библиотека кодирования : LAME3.99r

Скриншоты:

Время раздачи: 24/7 по возможности
Все раздачи сериала «Найти мужа в большом городе»
[NNM-Club.me]_Nayti muzha v bol'shom gorode.2014.SATRip.torrent
 Торрент: Платиновая раздача  Зарегистрирован
 
Скачать


Примагнититься
 Зарегистрирован:   24 Мар 2014 16:21:19
 Размер:   2,34 GB  (
 Рейтинг:   4,3 (Голосов: 36)
 Поблагодарили:   264
 Проверка:   Оформление проверено модератором 27 Мар 2014 02:53:56
Как cкачать  ·  Как раздать  ·  Правильно оформить  ·  Поднять ратио!  
Надеждароми
Стаж: 4 года 1 мес.
Сообщений: 1
Ratio: 0,104
0%
хороший состав актеров. но главная героиня не о чем. такое ощущение что только с первого курса вышла. фальшива играет. я смотрела только из за Бойко. и фильму не хватает чего то. скучно его смотреть.
Sturmbringer
Стаж: 11 лет 1 мес.
Сообщений: 123
Ratio: 5,848
100%
australia.gif
О гл. героини: услышал бы тебя ее папаша (Г. Хазанов) не позавидовал бы тебе. Он так категорично ответил без стеснения, что "она очень талантлива", что я не удержал смех.
Показать сообщения:   
Начать новую тему   Ответить на тему    Торрент-трекер NNM-Club -> Отечественные сериалы Часовой пояс: GMT + 3
Страница 1 из 1