Интеллигентный торрент-трекер
canvas not supported
Нас вместе: 4 105 090

Юнона и Авось (1983) DVDRip [H.264]


 
 
RSS
Начать новую тему   Ответить на тему    Торрент-трекер NNM-Club -> Театр и Музыкальное видео -> Опера, Балет, Мюзиклы
Автор Сообщение
polycom ®
Стаж: 6 лет 4 мес.
Сообщений: 838
Ratio: 174,979
Поблагодарили: 52165
100%
Откуда: Файна Юкрайна
ukraine.gif
Юнона и Авось (1983) DVDRip
Год выпуска: 1983
Жанр: Фильм-спектакль, рок-опера
Страна: СССР
Студия: Гостелерадио

Описание фильма:
В основу сюжета легла романтическая история любви русского путешественника Николая Резанова и дочери губернатора Сан-Франциско Марии де ла Кончи де Консепсьон.
Два парусных корабля «Юнона» и «Авось» под российским флагом прибывают в Калифорнию, где капитан брига «Авось» полюбил местную красавицу с гасиенды, чем вызвал ревность и ненависть влюбленного в нее соперника.

Режиссер: Марк Захаров
Актеры: Николай Караченцов, Елена Шанина, Павел Смеян, Александр Абдулов, Александр Садо, Владимир Ширяев, Владимир Кузнецов, Владимир Белоусов, Игорь Фокин, Роман Овчинников, Сергей Греков, Виллор Кузнецов, Людмила Поргина, Ирина Алферова, Николай Шушарин, Борис Чунаев, Юрий Поляков, Владимир Корецкий, актеры театра "Ленком", ансамбль "Рок-ателье"

Продолжительность: 01:23:16



Видеокодек: MPEG-4 AVC/H.264
Битрейт видео: ~2034 Кбит/сек
Размер кадра: 1024 x 776
Качество видео: DVDRip
Аудиокодек: AC3 5.1
Битрейт аудио: 448 Кбит/сек
Общее
Уникальный идентификатор : 175472866318166596704831588553447007399 (0x8402D842A5C8955C88DFFAA3DCFD64A7)
Полное имя : Junona.i.Avos.1983.x264.DVDRip.(AVC).mkv
Формат : Matroska
Версия формата : Version 2
Размер файла : 1,45 Гбайт
Продолжительность : 1 ч. 23 м.
Общий поток : 2488 Кбит/сек
Дата кодирования : UTC 2012-04-11 22:30:50
Программа кодирования : mkvmerge v5.0.1 ('Es ist Sommer') built on Nov 6 2011 16:23:40
Библиотека кодирования : libebml v1.2.2 + libmatroska v1.3.0

Видео
Идентификатор : 1
Формат : AVC
Формат/Информация : Advanced Video Codec
Профиль формата : High@L3.1
Параметр CABAC формата : Да
Параметр ReFrames формата : 4 кадра
Идентификатор кодека : V_MPEG4/ISO/AVC
Продолжительность : 1 ч. 23 м.
Битрейт : 2034 Кбит/сек
Ширина : 1024 пикселя
Высота : 776 пикселей
Соотношение сторон : 4:3
Режим частоты кадров : Постоянный
Частота кадров : 25,000 кадров/сек
Цветовое пространство : YUV
Субдискретизация насыщенности : 4:2:0
Битовая глубина : 8 бит
Тип развёртки : Прогрессивная
Бит/(Пиксели*Кадры) : 0.102
Размер потока : 1,16 Гбайт (80%)
Библиотека кодирования : x264 core 119 r2106 07efeb4
Настройки программы : cabac=1 / ref=3 / deblock=1:0:0 / analyse=0x3:0x113 / me=hex / subme=7 / psy=1 / psy_rd=1.00:0.00 / mixed_ref=1 / me_range=16 / chroma_me=1 / trellis=1 / 8x8dct=1 / cqm=0 / deadzone=21,11 / fast_pskip=1 / chroma_qp_offset=-2 / threads=3 / sliced_threads=0 / nr=0 / decimate=1 / interlaced=0 / bluray_compat=0 / constrained_intra=0 / bframes=3 / b_pyramid=2 / b_adapt=1 / b_bias=0 / direct=1 / weightb=1 / open_gop=0 / weightp=2 / keyint=250 / keyint_min=25 / scenecut=40 / intra_refresh=0 / rc_lookahead=40 / rc=abr / mbtree=1 / bitrate=2034 / ratetol=1.0 / qcomp=0.60 / qpmin=0 / qpmax=69 / qpstep=4 / ip_ratio=1.40 / aq=1:1.00
Default : Да
Forced : Нет

Аудио
Идентификатор : 2
Формат : AC-3
Формат/Информация : Audio Coding 3
Расширение режима : CM (complete main)
Параметр Endianness формата : Big
Идентификатор кодека : A_AC3
Продолжительность : 1 ч. 23 м.
Вид битрейта : Постоянный
Битрейт : 448 Кбит/сек
Каналы : 6 каналов
Расположение каналов : Front: L C R, Side: L R, LFE
Частота : 48,0 КГц
Битовая глубина : 16 бит
Метод сжатия : С потерями
Размер потока : 267 Мбайт (18%)
Default : Да
Forced : Нет
Скриншоты:

"Юнона и Авось" на NNM-CLUB

Время раздачи: По возможности (до 3 скачавших)
[NNM-Club.me]_Junona.i.Avos.1983.x264.DVDRip.(AVC).mkv.torrent
 Торрент: Платиновая раздача  Зарегистрирован
 
Скачать


Примагнититься
 Зарегистрирован:   23 Мар 2014 11:47:22
 Размер:   1,45 GB  (
 Рейтинг:   4,8 (Голосов: 111)
 Поблагодарили:   414
 Проверка:   Оформление проверено модератором 24 Мар 2014 18:47:43
Как cкачать  ·  Как раздать  ·  Правильно оформить  ·  Поднять ратио!  
asuaa
Стаж: 5 лет 10 мес.
Сообщений: 27
Ratio: 19,359
100%
russia.gif
Спасибо!
sav290
Стаж: 5 лет 9 мес.
Сообщений: 25
Ratio: 108,115
100%
russia.gif
Спасибо огромное!!!
bora64
Стаж: 6 лет 3 мес.
Сообщений: 3
Ratio: 12,902
100%
Хорошая работа! Спасибо!!!
Ktnxbr
Стаж: 6 лет 10 мес.
Сообщений: 9
Ratio: 1,855
6.67%
Спасибо огромное!!!
Года три назад, был в Ленкоме, смотрел в новом составе, спектакль произвел огромное впечатление.
К сожалению, не успел посмотреть с Караченцевым.
gofox
Стаж: 7 лет 2 мес.
Сообщений: 54
Ratio: 2,354
100%
russia.gif
Огромное спасибо!
polycom ®
Стаж: 6 лет 4 мес.
Сообщений: 838
Ratio: 174,979
Поблагодарили: 52165
100%
Откуда: Файна Юкрайна
ukraine.gif
Пожалуйста.
rfront137
Стаж: 8 лет 6 мес.
Сообщений: 141
Ratio: 10,103
0%
Откуда: moscow
russia.gif
качество ужасное,
совершенно не понятно, для чего там размер 1024 x 776
надеюсь, что когда-нибудь дойдет очередь до реставрации и "Юноны и Авось"...
graft55
Стаж: 8 лет 6 мес.
Сообщений: 165
Ratio: 7,865
17.76%
таки тоже очень жду реставрацию , даже если б собирали деньги типа кикстартера , поучаствовал бы
Nemec555
Стаж: 6 лет
Сообщений: 742
Ratio: 108,251
Раздал: 57,93 TB
Поблагодарили: 2824
100%
Откуда: Берлин
germany.gif
Единственное, что понравилось это музыка и исполнение, видео не очень хорошего качества но смотреть можно.
Ивва
Стаж: 3 года 4 мес.
Сообщений: 35
Ratio: 34,909
97.89%
russia.gif
Спасибо огромное! Хоть видео не самого лучшего качества, все равно спасибо. Гениальная постановка, замечательные актеры!!!
Показать сообщения:   
Начать новую тему   Ответить на тему    Торрент-трекер NNM-Club -> Театр и Музыкальное видео -> Опера, Балет, Мюзиклы Часовой пояс: GMT + 3
Страница 1 из 1