Интеллигентный торрент-трекер

Нас вместе: 3 662 067 | Новости торрент-трекера | Как тут скачивать? | Как раздавать торренты? | Правила оформления

Скачать бесплатно торрент Прогулки с динозаврами / Walking with Dinosaurs (2013) BDRip [1080p] [EN / EN Sub] torrent download


 
 
RSS
Начать новую тему   Ответить на тему    Торрент-трекер NNM-Club -> Архив торрентов -> Архив Видео
Предыдущая тема :: Следующая тема 
Автор Сообщение
karfa​gen19​75​ ®


Стаж: 3 года 8 мес.
Сообщений: 404
Ratio: 22,303
Раздал: 12,51 TB
Поблагодарили: 20819
100%
Откуда: Планета Земля
russia.gif

Сообщение 12 Мар 2014 18:24:33  Заголовок сообщения: Прогулки с динозаврами / Walking with Dinosaurs (2013) BDRip [1080p] [EN / EN Sub] Ответить с цитатой

Прогулки с динозаврами / Walking with Dinosaurs (2013) BDRip [1080p] [EN / EN Sub]
«Величайшее приключение за 70 миллионов лет»

Год выпуска: 2013
Производство: США, Великобритания, Индия / Animal Logic, BBC Earth, BBC Worldwide
Жанр: Анимация, Приключения, Семейный

Режиссер: Барри Кук, Нил Найтингейл
Актеры: Чарли Роу, Карл Урбан, Ангури Райс, Джон Легуизамо, Джастин Лонг, Скайлер Стоун, Тия Сиркар, Клэй Сэвадж, Мэри Мэтилин Маусер, Кэти Силверман

Описание фильма:
«Прогулки с динозаврами» — это увлекательное путешествие с полным погружением в 3D-реальность, созданную по инновационной технологии CGI. Мы увидим, как выглядели динозавры, как они жили и с какими опасностями им пришлось столкнуться. Главный герой истории — храбрый динозаврик Патчи, он самый маленький в семье, но именно ему предстоит стать лидером и спасти своих сородичей.

Перевод: Отсутствует
Язык: Английский
Субтитры: Вшитые отключаемые
Язык субтитров: Английские (full, SDH)



Дата мировой премьеры: 18 декабря 2013
Дата российской премьеры: 19 декабря 2013, «Двадцатый Век Фокс СНГ»
Дата выхода DVD релиза: 10 апреля 2014, «Двадцатый Век Фокс СНГ»

Продолжительность: 01:27:23
Качество видео: BDRip 1080p [BLOW] [profile-LQ]

Видеокодек: MPEG-4 AVC/H.264
Битрейт видео: 9233 Кбит/сек
Размер кадра: 1920x808
Аудио: DTS, 6 ch, 1509 Кбит/сек - Английский
Код:

Общее
Уникальный идентификатор                 : 213941896614613656564396109273008570483 (0xA0F3B5E3A650A468B78B0929353A0073)
Полное имя                               : H:\Walking.With.Dinosaurs.2013.BDRip.1080p.mkv
Формат                                   : Matroska
Версия формата                           : Version 4 / Version 2
Размер файла                             : 6,56 Гбайт
Продолжительность                        : 1 ч. 27 м.
Общий поток                              : 10,7 Мбит/сек
Дата кодирования                         : UTC 2014-03-11 23:00:23
Программа кодирования                    : mkvmerge v6.8.0 ('Theme for Great Cities') 64bit built on Mar  2 2014 21:34:26
Библиотека кодирования                   : libebml v1.3.0 + libmatroska v1.4.1

Видео
Идентификатор                            : 1
Формат                                   : AVC
Формат/Информация                        : Advanced Video Codec
Профиль формата                          : High@L4.1
Параметр CABAC формата                   : Да
Параметр ReFrames формата                : 5 кадров
Идентификатор кодека                     : V_MPEG4/ISO/AVC
Продолжительность                        : 1 ч. 27 м.
Битрейт                                  : 9233 Кбит/сек
Ширина                                   : 1920 пикселей
Высота                                   : 808 пикселей
Соотношение сторон                       : 2,40:1
Режим частоты кадров                     : Постоянный
Частота кадров                           : 23,976 кадра/сек
Цветовое пространство                    : YUV
Субдискретизация насыщенности            : 4:2:0
Битовая глубина                          : 8 бит
Тип развёртки                            : Прогрессивная
Бит/(Пиксели*Кадры)                      : 0.248
Размер потока                            : 5,51 Гбайт (84%)
Библиотека кодирования                   : x264 core 142 r2389 956c8d8
Настройки программы                      : cabac=1 / ref=5 / deblock=1:0:0 / analyse=0x3:0x133 / me=umh / subme=7 / psy=1 / psy_rd=1.00:0.00 / mixed_ref=1 / me_range=16 / chroma_me=1 / trellis=1 / 8x8dct=1 / cqm=0 / deadzone=21,11 / fast_pskip=1 / chroma_qp_offset=-2 / threads=12 / lookahead_threads=2 / sliced_threads=0 / nr=0 / decimate=1 / interlaced=0 / bluray_compat=0 / constrained_intra=0 / bframes=3 / b_pyramid=2 / b_adapt=2 / b_bias=0 / direct=1 / weightb=1 / open_gop=0 / weightp=2 / keyint=250 / keyint_min=23 / scenecut=40 / intra_refresh=0 / rc_lookahead=50 / rc=2pass / mbtree=1 / bitrate=9233 / ratetol=1.0 / qcomp=0.60 / qpmin=0 / qpmax=69 / qpstep=4 / cplxblur=20.0 / qblur=0.5 / ip_ratio=1.40 / aq=1:1.00
Язык                                     : English
Default                                  : Да
Forced                                   : Нет

Аудио
Идентификатор                            : 2
Формат                                   : DTS
Формат/Информация                        : Digital Theater Systems
Режим                                    : 16
Параметр Endianness формата              : Big
Идентификатор кодека                     : A_DTS
Продолжительность                        : 1 ч. 27 м.
Вид битрейта                             : Постоянный
Битрейт                                  : 1509 Кбит/сек
Каналы                                   : 6 каналов
Расположение каналов                     : Front: L C R, Side: L R, LFE
Частота                                  : 48,0 КГц
Битовая глубина                          : 24 бит
Метод сжатия                             : С потерями
Размер потока                            : 943 Мбайт (14%)
Язык                                     : English
Default                                  : Да
Forced                                   : Нет

Текст #1
Идентификатор                            : 3
Формат                                   : UTF-8
Идентификатор кодека                     : S_TEXT/UTF8
Идентификатор кодека/Информация          : UTF-8 Plain Text
Заголовок                                : English
Default                                  : Да
Forced                                   : Нет

Текст #2
Идентификатор                            : 4
Формат                                   : UTF-8
Идентификатор кодека                     : S_TEXT/UTF8
Идентификатор кодека/Информация          : UTF-8 Plain Text
Заголовок                                : English SDH
Язык                                     : English
Default                                  : Нет
Forced                                   : Нет

Меню
00:00:00.000                             : en:00:00:00.000
00:01:44.771                             : en:00:01:44.771
00:05:21.196                             : en:00:05:21.196
00:07:27.989                             : en:00:07:27.989
00:12:06.351                             : en:00:12:06.351
00:14:47.220                             : en:00:14:47.220
00:17:04.190                             : en:00:17:04.190
00:18:30.609                             : en:00:18:30.609
00:21:47.389                             : en:00:21:47.389
00:24:30.761                             : en:00:24:30.761
00:27:07.459                             : en:00:27:07.459
00:28:28.206                             : en:00:28:28.206
00:30:40.756                             : en:00:30:40.756
00:32:58.643                             : en:00:32:58.643
00:37:38.006                             : en:00:37:38.006
00:42:02.562                             : en:00:42:02.562
00:44:00.096                             : en:00:44:00.096
00:47:36.103                             : en:00:47:36.103
00:50:59.473                             : en:00:50:59.473
00:52:51.043                             : en:00:52:51.043
00:56:49.281                             : en:00:56:49.281
00:58:20.997                             : en:00:58:20.997
01:02:48.973                             : en:01:02:48.973
01:06:45.627                             : en:01:06:45.627
01:10:40.319                             : en:01:10:40.319
01:16:54.485                             : en:01:16:54.485
01:18:40.466                             : en:01:18:40.466
01:20:15.811                             : en:01:20:15.811
Скриншоты:





Все релизы этого фильма на NNM-Club

Время раздачи: Круглосуточно (До 5-ти скачавших)
[NNM-Club.me]_Walking.With.Dinosaurs.2013.BDRip.1080p.mkv.torrent
 Торрент: Золотая раздача  Зарегистрирован
 
Примагнититься

Зарегистрируйтесь и скачайте торрент!
 Зарегистрирован:   12 Мар 2014 18:24:33
 Размер:   6,56 GB  (
 Рейтинг:    (Голосов: 6)
 Поблагодарили:   19
 Проверка:   Оформление проверено модератором 13 Мар 2014 11:30:32
Как cкачать  ·  Как раздать  ·  Правильно оформить  ·  Поднять ратио!  


Последний раз редактировалось: karfagen1975 (12 Мар 2014 21:52:00), всего редактировалось 1 раз
karfa​gen19​75​ ®


Стаж: 3 года 8 мес.
Сообщений: 404
Ratio: 22,303
Раздал: 12,51 TB
Поблагодарили: 20819
100%
Откуда: Планета Земля
russia.gif

Сообщение 12 Мар 2014 18:51:25  Заголовок сообщения: Ответить с цитатой


Сообщение 13 Мар 2014 12:04:56

Топик был перенесен из форума Зарубежные Фильмы для детей в форум Архив Видео

Причина переноса: http://nnm-club.me/forum/viewtopic.php?t=765911
Lelya_K
karfa​gen19​75​ ®


Стаж: 3 года 8 мес.
Сообщений: 404
Ratio: 22,303
Раздал: 12,51 TB
Поблагодарили: 20819
100%
Откуда: Планета Земля
russia.gif

Сообщение 13 Мар 2014 17:17:55  Заголовок сообщения: Ответить с цитатой

Показать сообщения:   
Начать новую тему   Ответить на тему    Торрент-трекер NNM-Club -> Архив торрентов -> Архив Видео Часовой пояс: GMT + 4
Страница 1 из 1