Интеллигентный торрент-трекер
Нас вместе: 3 826 328 | Новости торрент-трекера | Как тут скачивать? | Как раздавать торренты? | Правила оформления

Скачать бесплатно торрент Голос. Дети. Сезон №1. Выпуск №2 (2014.03.08) SATRip torrent download


 
 
RSS
Начать новую тему   Ответить на тему    Торрент-трекер NNM-Club -> Документалистика и Телепередачи -> Музыкальные шоу
Предыдущая тема :: Следующая тема 
Автор Сообщение
svlesin ®
Куратор Документалистики/TV
RG Releasers
 
Стаж: 4 года 10 мес.
Сообщений: 21995
Ratio: 434,148
Поблагодарили: 1521439
100%
Сообщение 08 Мар 2014 19:51:34  Заголовок сообщения: Голос. Дети. Сезон №1. Выпуск №2 (2014.03.08) SATRip Ответить с цитатой

Голос. Дети. Сезон №1. Выпуск №2 (2014.03.08) SATRip
Режиссер / Телекомпания: Первый канал
Русское название: Голос. Дети
Год выпуска: 2014
Жанр: ТВ-Шоу, развлекательный

Описание:
Первый канал представляет премьеру музыкального проекта «Голос.Дети». С одной стороны, почти ничего нового. С другой, меняется практически все. Новый конкурсный проект строится по тем же принципам, что и нашумевший взрослый. Из тысяч заявок на участие, присланных в адрес Первого канала, музыкальная редакция отобрала несколько сотен самых достойных. В ходе предварительных кастингов было допущено к участию в слепых прослушиваниях 100 человек. Дальше – известно: «слепые», «поединки» и финал. Но! Речь идет о детях. В проекте участвуют исполнители в возрасте от 7 до 14 лет. Народ очень специфический, особенно с учетом весьма высоких требований к вокальным данным, которые существуют на «Голосе». С учетом жестких правил отсева и физических нагрузок, с которыми было так тяжело примириться даже взрослым участникам. Поэтому создатели шоу пошли на нововведения. Дети требуют к себе больше внимания, они гораздо более ранимы, чем взрослые. Поэтому в пару к ведущему Дмитрию Нагиеву добавилась со-ведущая Наталья Водянова, чья основная функция – готовить юные дарования к выходу на сцену, помогать им справиться со стрессом. Дети гораздо болезненнее реагируют на неудачи. Поэтому в «поединках» выступают не дуэты, а трио – выигрывают один, проигрывают двое. Неудача воспринимается легче, если переносится не в одиночестве. Наставников трое. Это ветераны «Голоса» Пелагея и Дима Билан, а также «новичок» - Максим Фадеев. Во время слепых прослушиваний наставники набирают себе команды, в каждой из которых будет по 15 человек. Затем в ходе поединков в командах остается лишь по 2 сильнейших вокалиста. Шесть человек выходят в финал, который демонстрируется в прямом эфире и в котором зрительское голосование определяет 1 победителя.

Ведущий: Дмитрий Нагиев

Продолжительность: ~ 01:42:10

Видеокодек: XviD
Битрейт видео: ~1800 kb/s
Размер кадра: 720 x 400
Качество видео: SATRip
Аудиокодек: MP3, 2ch.
Битрейт аудио: 192 kb/s
Формат : AVI
Формат/Информация : Audio Video Interleave
Размер файла : 1,43 Гбайт
Продолжительность : 1 ч. 42 м.
Общий поток : 2002 Кбит/сек
Программа кодирования : VirtualDubMod 1.5.10.3 | www.virtualdub-fr.org || (build 2550/release)
Библиотека кодирования : VirtualDub build 35491/release

Видео
Идентификатор : 0
Формат : MPEG-4 Visual
Профиль формата : Advanced Simple@L5
Параметр BVOP формата : 2
Параметр QPel формата : Нет
Параметр GMC формата : Без точки перехода
Параметр матрицы формата : Default (H.263)
Идентификатор кодека : XVID
Идентификатор кодека/Подсказка : XviD
Продолжительность : 1 ч. 42 м.
Битрейт : 1800 Кбит/сек
Ширина : 720 пикселей
Высота : 400 пикселей
Соотношение сторон : 16:9
Частота кадров : 25,000 кадров/сек
Цветовое пространство : YUV
Субдискретизация насыщенности : 4:2:0
Битовая глубина : 8 бит
Тип развёртки : Прогрессивная
Метод сжатия : С потерями
Бит/(Пиксели*Кадры) : 0.250
Размер потока : 1,28 Гбайт (90%)
Библиотека кодирования : XviD 1.2.1 (UTC 2008-12-04)

Аудио
Идентификатор : 1
Формат : MPEG Audio
Версия формата : Version 1
Профиль формата : Layer 3
Режим : Joint stereo
Идентификатор кодека : 55
Идентификатор кодека/Подсказка : MP3
Продолжительность : 1 ч. 42 м.
Вид битрейта : Постоянный
Битрейт : 192 Кбит/сек
Каналы : 2 канала
Частота : 48,0 КГц
Метод сжатия : С потерями
Размер потока : 140 Мбайт (10%)
Выравнивание : Соединение по промежуткам
Продолжительность промежутка : 40 мс. (1,00 видеокадр)
Время предзагрузки промежутка : 504 мс.
Библиотека кодирования : LAME3.99r
Настройки программы : -m j -V 4 -q 2 -lowpass 18.6 -b 192
Скриншоты:

Время раздачи: 24/7. До первых 5 скачавших.
Rip by Taz
Голос на NoNaMe Club
[NNM-Club.me]_Golos. Deti. Sezon №1. Vyipusk №02 (2014.03.08).avi.torrent
 Торрент:   Зарегистрирован
 
Примагнититься

Зарегистрируйтесь и скачайте торрент!
 Зарегистрирован:   08 Мар 2014 19:51:34
 Размер:   1,43 GB  (
 Рейтинг:   4,6 (Голосов: 42)
 Поблагодарили:   200
 Проверка:   Оформление проверено модератором 08 Мар 2014 19:52:00
Как cкачать  ·  Как раздать  ·  Правильно оформить  ·  Поднять ратио!  

_________________
Исправил релиз - напиши с ссылкой на него в теле письма. Как правильно написать письмо Модератору!!! Мои Релизы..
mirvital
Стаж: 4 года 4 мес.
Сообщений: 113
Ratio: 3,941
100%
russia.gif
Сообщение 08 Мар 2014 20:00:55  Заголовок сообщения: Ответить с цитатой

Большое спасибо! Но хотелось бы по-раньше! Если можно!
svlesin ®
Куратор Документалистики/TV
RG Releasers
 
Стаж: 4 года 10 мес.
Сообщений: 21995
Ratio: 434,148
Поблагодарили: 1521439
100%
Сообщение 08 Мар 2014 20:34:20  Заголовок сообщения: Ответить с цитатой

mirvital писал(а): Перейти к сообщению
Большое спасибо! Но хотелось бы по-раньше! Если можно!

Сегодня 8 марта!!!!

_________________
Исправил релиз - напиши с ссылкой на него в теле письма. Как правильно написать письмо Модератору!!! Мои Релизы..
Omeg

Online
Стаж: 3 года 3 мес.
Сообщений: 154
Ratio: 34,028
100%
Сообщение 08 Мар 2014 21:03:56  Заголовок сообщения: Ответить с цитатой

Спасибо! Караулил с 20.00 мск =)
mirvital
Стаж: 4 года 4 мес.
Сообщений: 113
Ratio: 3,941
100%
russia.gif
Сообщение 08 Мар 2014 22:50:10  Заголовок сообщения: Ответить с цитатой

Omeg писал(а): Перейти к сообщению
Спасибо! Караулил с 20.00 мск =)


А я караулил с 19:00 (мск). Всех женщин поздравляю с 8 Марта!!! :цветок:
Kiruy
Стаж: 2 года 10 мес.
Сообщений: 83
Ratio: 59,448
100%
Сообщение 09 Мар 2014 00:35:35  Заголовок сообщения: Ответить с цитатой

Скоро в стране работать некому будет, все будут петь и плясать. Ну как цигане прям.
Показать сообщения:   
Начать новую тему   Ответить на тему    Торрент-трекер NNM-Club -> Документалистика и Телепередачи -> Музыкальные шоу Часовой пояс: GMT + 3
Страница 1 из 1