Интеллигентный торрент-трекер
Нас вместе: 3 664 649 | Новости торрент-трекера | Как тут скачивать? | Как раздавать торренты? | Правила оформления

Гнев Ваджра / The Wrath of Vajra (2013) BDRip [1080p] [EN, Ma / En Sub]


 
 
RSS
Начать новую тему   Ответить на тему    Торрент-трекер NNM-Club -> Зарубежное кино -> Азиатское кино (HD)
Предыдущая тема :: Следующая тема  
Автор Сообщение
smaster67 ®
Покровитель талантов
Uploader 100+
 


Стаж: 5 лет 2 месяцa
Сообщений: 3977
Ratio: 102,078
Поблагодарили: 93425
100%

Сообщение 05 Мар 2014 00:04:28  Заголовок сообщения: Гнев Ваджра / The Wrath of Vajra (2013) BDRip [1080p] [EN, Ma / En Sub] Ответить с цитатой

Гнев Ваджра / The Wrath of Vajra (2013) BDRip [1080p] [EN, Ma / En Sub]
Год выпуска: 2013
Производство: Китай
Жанр: Ужасы, Фэнтези, Боевик

Описание фильма:
В 1930-х, до того, как западные державы вступили во Вторую мировую войну, японскому культу смерти, называющемуся Храм Аида, поступает приказ начать сотрудничество с военными с целью помочь им в разрушении духовного здоровья Китая. Элитные воины верят, что войну можно выиграть без использования оружия, созданного руками человека. Они выкупают маленьких детей у бедных родителей и обучают их боевым искусствам, чтобы сделать из них наёмных убийц, которые будут служить на благо Японской Империи.

Режиссер: Винг-Чеонг Лау
Актеры: Юй Син, Ю Сон Чжун, Хон Джан Нэм, Ясуаки Курата, Хироюки Икэути, Мэтт Маллинз, Кофи Йадом, Роберт Жилабер Куенка

Продолжительность: 01:50:37
Качество видео: BDRip
Перевод: Отсутствует
Язык: Английский, Мандарин (мандаринское наречие китайского языка)
Язык субтитров: Английские
Вид субтитров: Вшитые, отключаемые



Видеокодек: MPEG-4 AVC/H.264
Битрейт видео: ~8 295 Kbps
Размер кадра: 1920x800
Audio 1 : DTS 6 channels 1 510 Kbps (Английский)
Audio 2: DTS 6 channels 1 510 Kbps (Мандарин)
Сэмпл: Ссылка
The Wrath of Vajra.1080p.mkv
Format : Matroska
Format version : Version 4 / Version 2
File size : 8.74 GiB
Duration : 1h 50mn
Overall bit rate : 11.3 Mbps
Encoded date : UTC 2014-03-04 16:28:34
Writing application : mkvmerge v6.2.0 ('Promised Land') built on Apr 28 2013 12:22:01
Writing library : libebml v1.3.0 + libmatroska v1.4.0

Video
ID : 1
Format : AVC
Format/Info : Advanced Video Codec
Format profile : High@L4.1
Format settings, CABAC : Yes
Format settings, ReFrames : 5 frames
Codec ID : V_MPEG4/ISO/AVC
Duration : 1h 50mn
Bit rate : 8 295 Kbps
Width : 1 920 pixels
Height : 800 pixels
Display aspect ratio : 2.40:1
Frame rate : 24.000 fps
Color space : YUV
Chroma subsampling : 4:2:0
Bit depth : 8 bits
Scan type : Progressive
Bits/(Pixel*Frame) : 0.225
Stream size : 6.23 GiB (71%)
Title : X264
Writing library : x264 core 140 r2377 1ca7bb9
Encoding settings : cabac=1 / ref=5 / deblock=1:0:0 / analyse=0x3:0x133 / me=umh / subme=7 / psy=1 / psy_rd=1.00:0.00 / mixed_ref=1 / me_range=16 / chroma_me=1 / trellis=1 / 8x8dct=1 / cqm=0 / deadzone=21,11 / fast_pskip=0 / chroma_qp_offset=-2 / threads=36 / lookahead_threads=6 / sliced_threads=0 / nr=0 / decimate=1 / interlaced=0 / bluray_compat=0 / constrained_intra=0 / bframes=3 / b_pyramid=2 / b_adapt=1 / b_bias=0 / direct=1 / weightb=1 / open_gop=0 / weightp=2 / keyint=250 / keyint_min=23 / scenecut=40 / intra_refresh=0 / rc_lookahead=40 / rc=2pass / mbtree=1 / bitrate=8295 / ratetol=1.0 / qcomp=0.60 / qpmin=0 / qpmax=69 / qpstep=4 / cplxblur=20.0 / qblur=0.5 / ip_ratio=1.40 / aq=1:1.00
Language : English
Default : Yes
Forced : No

Audio #1
ID : 2
Format : DTS
Format/Info : Digital Theater Systems
Codec ID : A_DTS
Duration : 1h 50mn
Bit rate mode : Constant
Bit rate : 1 510 Kbps
Channel(s) : 6 channels
Channel positions : Front: L C R, Side: L R, LFE
Sampling rate : 48.0 KHz
Bit depth : 24 bits
Compression mode : Lossy
Stream size : 1.17 GiB (13%)
Title : English
Language : English
Default : No
Forced : No

Audio #2
ID : 3
Format : DTS
Format/Info : Digital Theater Systems
Codec ID : A_DTS
Duration : 1h 50mn
Bit rate mode : Constant
Bit rate : 1 510 Kbps
Channel(s) : 6 channels
Channel positions : Front: L C R, Side: L R, LFE
Sampling rate : 48.0 KHz
Bit depth : 24 bits
Compression mode : Lossy
Stream size : 1.17 GiB (13%)
Title : Mandarin
Default : Yes
Forced : Yes

Text
ID : 4
Format : UTF-8
Codec ID : S_TEXT/UTF8
Codec ID/Info : UTF-8 Plain Text
Title : English
Language : English
Default : Yes
Forced : Yes

Menu
00:00:00.000 : en:00:00:00.000
00:09:21.042 : en:00:09:21.042
00:13:34.917 : en:00:13:34.917
00:21:05.750 : en:00:21:05.750
00:28:45.125 : en:00:28:45.125
00:41:55.167 : en:00:41:55.167
00:50:39.625 : en:00:50:39.625
00:59:27.583 : en:00:59:27.583
01:11:17.042 : en:01:11:17.042
01:18:35.667 : en:01:18:35.667
01:26:16.583 : en:01:26:16.583
01:30:55.917 : en:01:30:55.917
01:36:29.500 : en:01:36:29.500
01:45:45.125 : en:01:45:45.125
Скриншоты:


Время раздачи: с 13:00 до 23:00
[NNM-Club.me]_The Wrath of Vajra.1080p.mkv.torrent
 Торрент: Золотая раздача  Зарегистрирован
 
Примагнититься

Зарегистрируйтесь и скачайте торрент!
 Зарегистрирован:   05 Мар 2014 00:04:28
 Размер:   8,74 GB  (
 Рейтинг:   3,8 (Голосов: 18)
 Поблагодарили:   50
 Проверка:   Оформление проверено модератором 05 Мар 2014 20:48:41
Как cкачать  ·  Как раздать  ·  Правильно оформить  ·  Поднять ратио!  
veterrf86


Стаж: 3 года 6 месяцев
Сообщений: 52
Ratio: 3,2
71.24%

Сообщение 28 Май 2014 23:49:24  Заголовок сообщения: Ответить с цитатой

Блин, где перевод )) На известный трекер кто то перевел, но там качество не айс.. ооо. а не перекинуть ли мне дорожку.. мм)))
Показать сообщения:   
Начать новую тему   Ответить на тему    Торрент-трекер NNM-Club -> Зарубежное кино -> Азиатское кино (HD) Часовой пояс: GMT + 4
Страница 1 из 1