Классический форум-трекер
canvas not supported
Нас вместе: 4 068 672

Облако 9 / Cloud 9 (2014) WEB-DLRip


 
 
RSS
Начать новую тему   Ответить на тему    Торрент-трекер NNM-Club -> Зарубежное кино -> Зарубежные Фильмы (HD*Rip/LQ, DVDRip, SATRip, VHSRip)
Автор Сообщение
Sедой ®
Стаж: 8 лет 6 мес.
Сообщений: 3059
Ratio: 5117,534
Поблагодарили: 643082
100%
Откуда: Донецк
Облако 9 / Cloud 9 (2014) WEB-DLRip«Nothing's impossible»
Год выпуска: 2014
Производство: США
Жанр: Боевик, Драма, Мелодрама, Спорт
Перевод: Дублированный (Канал Disney)
Субтитры: Отсутствуют

Дата мировой премьеры: 17 января 2014

Режиссер: Пол Хоэн
Продюсер: Матиас Альварез, Джессика Хоровиц, Керклэнд Тибблз
Актеры: Дав Кэмерон, Люк Бенуорд, Кирси Клемонс, Майк С. Мэннинг, Диллон Лэйн, Карлон Джеффери, Эндрю Колдуэлл, Патрик Фабиан, Эми Фаррингтон, Джеффри Нордлинг

Описание фильма:
Очаровательная Кайла — восходящая звезда сноуборда. Она покидает свою команду, чтобы сосредоточиться на тренировках с известным сноубордистом по имени Уилл, который долгое время не принимает участия в соревнованиях. Наставник показывает Кайле совершенно новую технику катания и обещает, что девушка станет одной из лучших спортсменок сезона. Отзывчивая Кайла старается помочь Уиллу обрести веру в себя и убеждает его не останавливаться на результатах, достигнутых в прошлом.



Продолжительность: 01:27:28
Качество видео: WEB-DLRip

Видеокодек: Xvid
Битрейт видео: ~2035 Kbit/s
Размер кадра: 720 x 400
Аудиокодек: AC3 2.0
Битрейт аудио: 192 Kbit/s
Код:
Общее
Полное имя                       : D:\Торренты\Облако 9.2014.WEBDLRip.avi
Формат                           : AVI
Формат/Информация                : Audio Video Interleave
Размер файла                     : 1,37 Гбайт
Продолжительность                : 1 ч. 27 м.
Общий поток                      : 2236 Кбит/сек
Программа кодирования            : VirtualDubMod 1.5.10.3 (build 2550/release)
Библиотека кодирования           : VirtualDubMod build 2550/release

Видео
Идентификатор                    : 0
Формат                           : MPEG-4 Visual
Профиль формата                  : Advanced Simple@L5
Параметр BVOP формата            : 2
Параметр QPel формата            : Нет
Параметр GMC формата             : Без точки перехода
Параметр матрицы формата         : Default (H.263)
Идентификатор кодека             : XVID
Идентификатор кодека/Подсказка   : XviD
Продолжительность                : 1 ч. 27 м.
Битрейт                          : 2035 Кбит/сек
Ширина                           : 720 пикс.
Высота                           : 400 пикс.
Соотношение сторон               : 16:9
Частота кадров                   : 23,976 кадр/сек
Цветовое пространство            : YUV
Подвыборка цветности             : 4:2:0
Битовая глубина                  : 8 бит
Тип развёртки                    : Прогрессивная
Метод сжатия                     : С потерями
Бит/(Пиксели*Кадры)              : 0.295
Размер потока                    : 1,24 Гбайт (91%)
Библиотека кодирования           : XviD 1.2.1 (UTC 2008-12-04)

Аудио
Идентификатор                    : 1
Формат                           : AC-3
Формат/Информация                : Audio Coding 3
Расширение режима                : CM (complete main)
Идентификатор кодека             : 2000
Продолжительность                : 1 ч. 27 м.
Вид битрейта                     : Постоянный
Битрейт                          : 192 Кбит/сек
Каналы                           : 2 канала
Расположение каналов             : Front: L R
Частота                          : 48,0 КГц
Битовая глубина                  : 16 бит
Метод сжатия                     : С потерями
Размер потока                    : 120 Мбайт (9%)
Выравнивание                     : Разделение по промежуткам
Продолжительность промежутка     : 42  мс. (1,00 видеокадр)
Время предзагрузки промежутка    : 500 ms

Скриншоты:

Время раздачи: 24/7 по возможности
[NNM-Club.me]_Oblako 9.2014.WEBDLRip.avi.torrent
 Торрент: Платиновая раздача  Зарегистрирован
 
Скачать


Примагнититься
 Зарегистрирован:   02 Мар 2014 00:28:15
 Размер:   1,37 GB  (
 Рейтинг:   4,2 (Голосов: 26)
 Поблагодарили:   145
 Проверка:   Оформление проверено модератором 02 Мар 2014 07:56:55
Как cкачать  ·  Как раздать  ·  Правильно оформить  ·  Поднять ратио!  
Vitmatroskin
Стаж: 8 лет 2 мес.
Сообщений: 27
Ratio: 349,051
100%
Откуда: г.Керчь
russia.gif
К сожалению,поскольку целый день держал на раздаче,и только потом посмотрел-фильм не полный,финала нет.Хотелось бы,чтобы раздачи проверялись более внимательно.
life4kill
Стаж: 9 лет 2 мес.
Сообщений: 495
Ratio: 32,018
Раздал: 10,46 TB
Поблагодарили: 2786
100%
Откуда: зі Львова я!
ukraine.gif
Цитата:
Жанр: Боевик
:шок: :лол:
Показать сообщения:   
Начать новую тему   Ответить на тему    Торрент-трекер NNM-Club -> Зарубежное кино -> Зарубежные Фильмы (HD*Rip/LQ, DVDRip, SATRip, VHSRip) Часовой пояс: GMT + 3
Страница 1 из 1