Классический форум-трекер
canvas not supported
Нас вместе: 4 068 748

Мир для двоих (2014) SATRip [1-4 серии из 4]


 
 
RSS
Начать новую тему   Ответить на тему    Торрент-трекер NNM-Club -> Архив торрентов -> Архив Сериалов и Старого многосерийного кино до 90-х
Автор Сообщение
Sедой ®
Стаж: 8 лет 6 мес.
Сообщений: 3059
Ratio: 5117,534
Поблагодарили: 643076
100%
Откуда: Донецк
Мир для двоих (2014) SATRip [1-4 серии из 4]
Русское название: Мир для двоих
Выпущено: Россия, "Всемирные российские студии"
Год выпуска: 2014
Жанр: Мелодрама
Перевод: Оригинал (Русский)
Субтитры: Отсутствуют



Дата российской премьеры: 1 марта 2014

Режиссер: Наталья Средникова
Актеры: Илья Ермолов, Александр Галибин, Марина Зайцева, Игорь Ливанов, Кристина Кириллова

Описание фильма:
Алена - студентка-отличница и примерная дочь. А Макс - ее прямая противоположность. Его папа - богатый бизнесмен, и парень с детства привык получать все, что ему хочется. Он любит выпить, ходить по клубам, в свои двадцать пять лет он еще ни разу не работал. И все-таки они влюбляются друг в друга. Родители, узнав об этом, не одобряют выбор своих детей и всеми силами пытаются разлучить влюбленных…

Продолжительность: 4 х ~ 00:44:39 серия
Качество видео: SATRip

Видеокодек: DivX 5
Битрейт видео: ~1601 Kbit/s
Размер кадра: 720 x 480
Аудиокодек: MP3, 2.0
Битрейт аудио: 128 Kbit/s
Общее
Полное имя : D:\Торренты\ФИЛЬМЫ торента\Мир для двоих.2014.SATRip\Мир для двоих.01.avi
Формат : AVI
Формат/Информация : Audio Video Interleave
Размер файла : 556 Мбайт
Продолжительность : 44 м.
Общий поток : 1742 Кбит/сек
Программа кодирования : transcode-1.1.5

Видео
Идентификатор : 0
Формат : MPEG-4 Visual
Параметр BVOP формата : Да
Параметр QPel формата : Нет
Параметр GMC формата : Без точки перехода
Параметр матрицы формата : Default (H.263)
Идентификатор кодека : DX50
Идентификатор кодека/Подсказка : DivX 5
Продолжительность : 44 м.
Битрейт : 1601 Кбит/сек
Ширина : 720 пикс.
Высота : 480 пикс.
Соотношение сторон : 3:2
Частота кадров : 25,000 кадр/сек
Стандарт вещания : NTSC
Цветовое пространство : YUV
Подвыборка цветности : 4:2:0
Битовая глубина : 8 бит
Тип развёртки : Прогрессивная
Метод сжатия : С потерями
Бит/(Пиксели*Кадры) : 0.185
Размер потока : 511 Мбайт (92%)
Библиотека кодирования : Intel(R) MPEG-4 encoder based on Intel(R) IPP 6.1 build 137.20[6.1.137.763]

Аудио
Идентификатор : 1
Формат : MPEG Audio
Версия формата : Version 1
Профиль формата : Layer 3
Режим : Joint stereo
Расширение режима : MS Stereo
Идентификатор кодека : 55
Идентификатор кодека/Подсказка : MP3
Продолжительность : 44 м.
Вид битрейта : Постоянный
Битрейт : 128 Кбит/сек
Каналы : 2 канала
Частота : 48,0 КГц
Метод сжатия : С потерями
Размер потока : 40,9 Мбайт (7%)
Выравнивание : Соединение по промежуткам
Продолжительность промежутка : 24 мс. (0,60 видеокадр)
Время предзагрузки промежутка : 48 ms
Библиотека кодирования : LAME3.98.2

Скриншоты:

Время раздачи: 24/7 по возможности
Все раздачи сериала «Мир для двоих»
[NNM-Club.me]_Mir dlya dvoih.2014.SATRip.torrent
 Торрент: Платиновая раздача  Зарегистрирован
 
Скачать


Примагнититься
 Зарегистрирован:   01 Мар 2014 17:31:06
 Размер:   2,1 GB  (
 Рейтинг:   4,2 (Голосов: 58)
 Поблагодарили:   283
 Проверка:   Оформление проверено модератором 02 Мар 2014 00:28:07
Как cкачать  ·  Как раздать  ·  Правильно оформить  ·  Поднять ратио!  

_________________
...Талантам надо помогать, Бездарности пробьются сами.
@ Лев Озеров
markoni625
Стаж: 6 лет 3 мес.
Сообщений: 248
Ratio: 4,046
100%
Фильм бомба с хорошими актерами да и не только. Только что посмотрел в онлайне вот и хочу просидировать и постоять на раздаче к тому же и дочь не смотрела этот фильм а такие фильмы (жизненные) она очень любит. Релизу RESPEKT
ilvitiok
Стаж: 5 лет 3 мес.
Сообщений: 2
Ratio: 4,998
1.56%
Ну тогда посмотрим)))
Топик был перенесен из форума Отечественные сериалы в форум Архив Сериалов

Причина переноса: раздающего не было 3 месяца.

Исправил релиз - напиши ЛС DriverV, дав ссылку на релиз.
Если нет ответа 24 часа - нажми на кнопку "Обратить внимание модераторов".
Показать сообщения:   
Начать новую тему   Ответить на тему    Торрент-трекер NNM-Club -> Архив торрентов -> Архив Сериалов и Старого многосерийного кино до 90-х Часовой пояс: GMT + 3
Страница 1 из 1