Классический форум-трекер
canvas not supported
Нас вместе: 4 069 051

Зомбекс / Zombex (2013) BDRip [720p] [VO]


 
 
RSS
Начать новую тему   Ответить на тему    Торрент-трекер NNM-Club -> Зарубежное кино -> Зарубежные Фильмы (HD, UHD-LQ)
Автор Сообщение
Sедой ®
Стаж: 8 лет 7 мес.
Сообщений: 3059
Ratio: 5117,534
Поблагодарили: 643113
100%
Откуда: Донецк
Зомбекс / Zombex (2013) BDRip«The revolutionary treatment guaranteed to ease your mind. Permanently»
Год выпуска: 2013
Производство: США
Жанр: Ужасы, Триллер
Перевод: Одноголосый закадровый, любительский (den904)
Субтитры: Отсутствуют

Дата мировой премьеры: 26 октября 2013

Режиссер: Джесси Дэйтон
Продюсер: Марисса Гаррисон, Карма Клауд Монтань, Бэрри Александр
Актеры: Лью Темпл, Дэвид Кристофер, Малкольм МакДауэлл, Сид Хэйг, Кори Фельдман, Джон Доу, Эмили Кэй, Том Арая, Кинки Фридман, Гари Тига, Джесси Де Луна

Описание фильма:
События разворачиваются после урагана Катрина, после которого начался зомби-апокалипсис, вызванный употреблением нового успокоительного препарата "Зомбекса", предоставленного из ниоткуда взявшейся корпорацией для преодоления пост-травматического синдрома.



Продолжительность: 01:20:20
Качество видео: BDRip [profile-LQ]

Видеокодек: MPEG-4 AVC/H.264
Битрейт видео: ~4336 Kbit/s
Размер кадра: 1280 x 536
Аудио #1: AC3, 48,0 КHz, 2.0, 192 Kbit/s - Русский
Aудио #2: DTS, 48,0 КHz, 5.1, 1510 Kbit/s - Aнглийский
Дополнительно: Главы присутствуют
Код:
Общее
Уникальный идентификатор         : 193585107445295647988051574778031214570 (0x91A322B18BAF551DAA26FCF2FF3B8FEA)
Полное имя                       : D:\Торренты\Zombex.2013.L1.BDRip.720p.mkv
Формат                           : Matroska
Размер файла                     : 3,39 Гбайт
Продолжительность                : 1 ч. 20 м.
Общий поток                      : 6037 Кбит/сек
Дата кодирования                 : UTC 2014-02-28 18:53:35
Программа кодирования            : mkvmerge v6.1.0 ('Old Devil') built on Mar  4 2013 09:10:42
Библиотека кодирования           : libebml v1.3.0 + libmatroska v1.4.0

Видео
Идентификатор                    : 1
Формат                           : AVC
Формат/Информация                : Advanced Video Codec
Профиль формата                  : High@L4.1
Параметр CABAC формата           : Да
Параметр ReFrames формата        : 5 кадров
Параметры GOP формата            : M=4, N=12
Идентификатор кодека             : V_MPEG4/ISO/AVC
Продолжительность                : 1 ч. 20 м.
Битрейт                          : 4336 Кбит/сек
Ширина                           : 1280 пикс.
Высота                           : 536 пикс.
Соотношение сторон               : 2,35:1
Частота кадров                   : 23,976 кадр/сек
Цветовое пространство            : YUV
Подвыборка цветности             : 4:2:0
Битовая глубина                  : 8 бит
Тип развёртки                    : Прогрессивная
Бит/(Пиксели*Кадры)              : 0.264
Размер потока                    : 2,37 Гбайт (70%)
Библиотека кодирования           : x264 core 140 r2377 1ca7bb9
Настройки программы              : cabac=1 / ref=5 / deblock=1:0:0 / analyse=0x3:0x113 / me=umh / subme=7 / psy=1 / psy_rd=1.00:0.00 / mixed_ref=1 / me_range=16 / chroma_me=1 / trellis=1 / 8x8dct=1 / cqm=0 / deadzone=21,11 / fast_pskip=0 / chroma_qp_offset=-2 / threads=18 / lookahead_threads=3 / sliced_threads=0 / nr=0 / decimate=1 / interlaced=0 / bluray_compat=0 / constrained_intra=0 / bframes=3 / b_pyramid=2 / b_adapt=1 / b_bias=0 / direct=1 / weightb=1 / open_gop=0 / weightp=2 / keyint=250 / keyint_min=23 / scenecut=40 / intra_refresh=0 / rc_lookahead=40 / rc=2pass / mbtree=1 / bitrate=4336 / ratetol=1.0 / qcomp=0.60 / qpmin=0 / qpmax=69 / qpstep=4 / cplxblur=20.0 / qblur=0.5 / ip_ratio=1.40 / aq=1:1.00
Язык                             : English

Аудио #1
Идентификатор                    : 2
Формат                           : AC-3
Формат/Информация                : Audio Coding 3
Расширение режима                : CM (complete main)
Идентификатор кодека             : A_AC3
Продолжительность                : 1 ч. 20 м.
Вид битрейта                     : Постоянный
Битрейт                          : 192 Кбит/сек
Каналы                           : 2 канала
Расположение каналов             : Front: L R
Частота                          : 48,0 КГц
Битовая глубина                  : 16 бит
Метод сжатия                     : С потерями
Размер потока                    : 110 Мбайт (3%)
Язык                             : Russian

Аудио #2
Идентификатор                    : 3
Формат                           : DTS
Формат/Информация                : Digital Theater Systems
Идентификатор кодека             : A_DTS
Продолжительность                : 1 ч. 20 м.
Вид битрейта                     : Постоянный
Битрейт                          : 1510 Кбит/сек
Каналы                           : 6 каналов
Расположение каналов             : Front: L C R, Side: L R, LFE
Частота                          : 48,0 КГц
Битовая глубина                  : 24 бит
Метод сжатия                     : С потерями
Размер потока                    : 868 Мбайт (25%)
Язык                             : English

Меню
00:00:00.000                     : en:00:00:00.000
00:06:06.741                     : en:00:06:06.741
00:12:02.138                     : en:00:12:02.138
00:18:28.232                     : en:00:18:28.232
00:24:28.509                     : en:00:24:28.509
00:30:08.974                     : en:00:30:08.974
00:36:00.575                     : en:00:36:00.575
00:43:30.900                     : en:00:43:30.900
00:49:57.578                     : en:00:49:57.578
00:54:53.415                     : en:00:54:53.415
01:04:05.091                     : en:01:04:05.091
01:10:20.091                     : en:01:10:20.091

Скриншоты:

Время раздачи: 24/7 по возможности
[NNM-Club.me]_Zombeks.2013.BDRip.720p.mkv.torrent
 Торрент:   Зарегистрирован
 
Зарегистрируйтесь и скачайте торрент!
17,4 KB

Примагнититься
 Зарегистрирован:   01 Мар 2014 13:42:19
 Размер:   3,39 GB  (
 Рейтинг:   3,9 (Голосов: 20)
 Поблагодарили:   76
 Проверка:   Оформление проверено модератором 02 Мар 2014 10:31:40
Как cкачать  ·  Как раздать  ·  Правильно оформить  ·  Поднять ратио!  
артурq
Стаж: 7 лет 9 мес.
Сообщений: 36
Ratio: 2,433
Раздал: 1,746 TB
Поблагодарили: 60
100%
russia.gif
рейтинг настораживает..
blertrift
Стаж: 8 лет 6 мес.
Сообщений: 328
Ratio: 10,24
Поблагодарили: 687
25%
Откуда: Izhevsk
russia.gif
артурq писал(а): Перейти к сообщению
рейтинг настораживает..


Жаль вас , судите фильмы по мнение чужих людей !!!
Den1els
Стаж: 8 лет 1 мес.
Сообщений: 66
Ratio: 3,276
20.7%
ukraine.gif
реально рейтин уг, перевода нормального нет поэтому, ибо народ кал не переводит
Clai
Uploader 100+
Стаж: 9 лет 6 мес.
Сообщений: 44
Ratio: 114,687
100%
рейтинг не настораживает, а зашкаливает,
миллионы мух не могут ошибаццо
Raoul
Стаж: 8 лет 5 мес.
Сообщений: 76
Ratio: 16,492
100%
russia.gif
Да пофиг на рейтинг, за то Том Арайа (SLAYER) там играет, по крайней мере интересно из-за этого факта краем глаза глянуть фильм.
Muxxxac
Стаж: 5 лет 1 мес.
Сообщений: 1
Ratio: 0,393
0%
фильм снят на телефон. Басиста slayer искал с помощью перемотки, но так и не нашел. Видимо он играл кого-то из зомбаков в массовке. впечатление о фильме складывается в течение первых полутора минут просмотра))
Показать сообщения:   
Начать новую тему   Ответить на тему    Торрент-трекер NNM-Club -> Зарубежное кино -> Зарубежные Фильмы (HD, UHD-LQ) Часовой пояс: GMT + 3
Страница 1 из 1