Классический форум-трекер
canvas not supported
Нас вместе: 4 069 181

Обезьянья лапа / Тhe Monkey's Paw (2013) WEB-DLRip [VO]


 
 
RSS
Начать новую тему   Ответить на тему    Торрент-трекер NNM-Club -> Архив торрентов -> Архив Видео
Автор Сообщение
Sедой ®
Стаж: 8 лет 6 мес.
Сообщений: 3059
Ratio: 5117,534
Поблагодарили: 643104
100%
Откуда: Донецк
Обезьянья лапа / Тhe Monkey's Paw (2013) WEB-DLRip
Год выпуска: 2013
Производство: США, Jay-X Entertainment, TMP Films
Жанр: Ужасы, Триллер
Перевод: Одноголосый закадровый, любительский
Озвучка / Автор перевода: Хихикающий доктор
Субтитры: Отсутствуют

Дата мировой премьеры: 8 октября 2013

Режиссер: Бретт Симмонс
Продюсер: Шэйн О’Брайэн, Росс Оттерман, Джастин Смит
Актеры: С.Дж. Томасон, Стивен Лэнг, Мишель Пирс, Корбин Блю, Дэниэл Хью Келли, Чарльз С. Даттон, Джессика Гарви, Энди Фавро

Описание фильма:
Еще одна интерпретация на тему исполнения трех желаний и их последствий. В роли феи выступает обезьянья лапка.



Продолжительность: 01:28:28
Качество видео: WEB-DLRip

Видеокодек: Xvid
Битрейт видео: ~1810 Kbit/s
Размер кадра: 720 x 400
Аудиокодек: MP3, 2.0
Битрейт аудио: 256 Kbit/s
Код:
Общее
Полное имя                       : D:\Торренты\Обезьянья лапа.2013.HDRip.avi
Формат                           : AVI
Формат/Информация                : Audio Video Interleave
Размер файла                     : 1,28 Гбайт
Продолжительность                : 1 ч. 28 м.
Общий поток                      : 2075 Кбит/сек
Программа кодирования            : VirtualDubMod 1.5.10.3 (build 2550/release)
Библиотека кодирования           : VirtualDubMod build 2550/release

Видео
Идентификатор                    : 0
Формат                           : MPEG-4 Visual
Профиль формата                  : Advanced Simple@L5
Параметр BVOP формата            : 2
Параметр QPel формата            : Нет
Параметр GMC формата             : Без точки перехода
Параметр матрицы формата         : Default (MPEG)
Режим смешивания                 : Сжатый битовый поток
Идентификатор кодека             : XVID
Идентификатор кодека/Подсказка   : XviD
Продолжительность                : 1 ч. 28 м.
Битрейт                          : 1810 Кбит/сек
Ширина                           : 720 пикс.
Высота                           : 400 пикс.
Соотношение сторон               : 16:9
Частота кадров                   : 23,976 кадр/сек
Цветовое пространство            : YUV
Подвыборка цветности             : 4:2:0
Битовая глубина                  : 8 бит
Тип развёртки                    : Прогрессивная
Метод сжатия                     : С потерями
Бит/(Пиксели*Кадры)              : 0.262
Размер потока                    : 1,12 Гбайт (87%)
Библиотека кодирования           : XviD 58

Аудио
Идентификатор                    : 1
Формат                           : MPEG Audio
Версия формата                   : Version 1
Профиль формата                  : Layer 3
Идентификатор кодека             : 55
Идентификатор кодека/Подсказка   : MP3
Продолжительность                : 1 ч. 28 м.
Вид битрейта                     : Постоянный
Битрейт                          : 256 Кбит/сек
Каналы                           : 2 канала
Частота                          : 44,1 КГц
Метод сжатия                     : С потерями
Задержка видео                   : 22 мс.
Размер потока                    : 162 Мбайт (12%)
Выравнивание                     : Разделение по промежуткам
Продолжительность промежутка     : 42  мс. (1,00 видеокадр)
Время предзагрузки промежутка    : 500 ms

Скриншоты:

Время раздачи: 24/7 по возможности
[NNM-Club.me]_Obez'yan'ya lapa.2013.HDRip.avi.torrent
 Торрент:   Зарегистрирован
 
Зарегистрируйтесь и скачайте торрент!
13,3 KB

Примагнититься
 Зарегистрирован:   27 Фев 2014 09:37:27
 Размер:   1,28 GB  (
 Рейтинг:   4,3 (Голосов: 73)
 Поблагодарили:   326
 Проверка:   Оформление проверено модератором 27 Фев 2014 10:08:52
Как cкачать  ·  Как раздать  ·  Правильно оформить  ·  Поднять ратио!  
Devel87
Стаж: 5 лет 7 мес.
Сообщений: 1278
Ratio: 45,153
100%
vietnam.gif
Чего нынче не придумают режиссеры,лишь бы сделать из этого кино.Но я книгу не читал(так как читаю более серьезную литературу)поэтому гляну пожалуй это кино.Благодарю за релиз
Sabinus
Стаж: 9 лет 1 мес.
Сообщений: 215
Ratio: 23,196
Поблагодарили: 3868
100%
Откуда: Николаев
ukraine.gif
Нда. Фильм возможно кому-то и понравится. Но я сомневаюсь.
Задумка неплохая, актеры вроде стараются, но нет изюминки.
Фильм весьма посредственный. Досмотреть до конца не смог.
kalvis
Стаж: 9 лет 2 мес.
Сообщений: 138
Ratio: 0,915
99.57%
фильм нормальный. перевод- не понравился.
drumerbot
Стаж: 8 лет 4 мес.
Сообщений: 63
Ratio: 12,17
Раздал: 11,38 TB
0%
russia.gif
Очередной бюджетная ерунда!! Повелся на картинку вот вам и результат.Хорошие ужасы сейчас редкость.Даже трейлера нет на этот фильм.
#ramcram
Uploader 100+
Стаж: 12 лет 1 мес.
Сообщений: 864
Ratio: 143,946
Поблагодарили: 78
100%
ussr.gif
Посмотрел. По мне так 3-сортный фильм с посредственной игрой актёров. Диалоги тоже не впечатляют, или они убиты хихикающим доктором, либо сами по себе не очень. Страшно не было, сложно нынче сделать действительно страшный фильм.
Посмотреть конечно можно, но пересматривать точно желания никакого не будет. Оценка 2.5-3 из 5.
Топик был перенесен из форума Зарубежные Новинки (HD*Rip/LQ, DVDRip) в форум Архив Видео

Причина переноса: http://nnmclub.to/forum/viewtopic.php?t=763986
Lelya_K
Показать сообщения:   
Начать новую тему   Ответить на тему    Торрент-трекер NNM-Club -> Архив торрентов -> Архив Видео Часовой пояс: GMT + 3
Страница 1 из 1