Классический форум-трекер
canvas not supported
Нас вместе: 4 069 056

Козы / Standing Up (2013) WEB-DLRip


 
 
RSS
Начать новую тему   Ответить на тему    Торрент-трекер NNM-Club -> Видео -> Зарубежные Фильмы для детей
Автор Сообщение
Sедой ®
Стаж: 8 лет 7 мес.
Сообщений: 3059
Ratio: 5117,534
Поблагодарили: 643113
100%
Откуда: Донецк
Козы / Standing Up (2013) WEB-DLRip
Русское название: Козы
Оригинальное название: Standing Up
Год выпуска: 2013
Производство: США / AR Films, Aldamisa Entertainment, Seven Star Pictures
Жанр: Детский, Семейный, Приключения (для среднего и старшего школьного возраста)

Описание фильма:
Фильм снят по мотивам одного из самых любимых всеми поколениями романа Брока Коула "Козы". Двух подростков - жертв жестокого розыгрыша, популярного в их летнем лагере - раздевают догола и оставляют ночевать на безлюдном острове. Вместо того, чтобы униженными вернуться в лагерь, они решают сбежать. Впереди их ждет трехдневная одиссея, полная неожиданных открытий

Режиссер: Ди Джей Карузо
Актеры: Чандлер Кентербери, Анналиса Бассо, Рада Митчелл, Вэл Килмер, Кейт Флиппен, Уильям Дж. Харрисон, Джаред Кеммерлинг, Кейт Маберли, Блейк Гриффин, Чарльз Кэррол

Продолжительность: 01:33:12
Качество видео: WEB-DLRip
Перевод: Многоголосый закадровый
Язык субтитров: Отсутствуют



Дата мировой премьеры: 22 февраля 2013

Видеокодек: Xvid
Битрейт видео: ~2046 Kbit/s
Размер кадра: 720 x 288
Аудиокодек: AC3 2.0
Битрейт аудио: 192 Kbit/s
Код:
Общее
Полное имя                       : D:\Торренты\Козы.2013.WEBDLRip.avi
Формат                           : AVI
Формат/Информация                : Audio Video Interleave
Размер файла                     : 1,46 Гбайт
Продолжительность                : 1 ч. 33 м.
Общий поток                      : 2247 Кбит/сек
Программа кодирования            : VirtualDubMod 1.5.10.2 (build 2540/release)
Библиотека кодирования           : VirtualDubMod build 2540/release

Видео
Идентификатор                    : 0
Формат                           : MPEG-4 Visual
Профиль формата                  : Advanced Simple@L5
Параметр BVOP формата            : 1
Параметр QPel формата            : Нет
Параметр GMC формата             : Без точки перехода
Параметр матрицы формата         : Выборочная
Идентификатор кодека             : XVID
Идентификатор кодека/Подсказка   : XviD
Продолжительность                : 1 ч. 33 м.
Битрейт                          : 2046 Кбит/сек
Ширина                           : 720 пикс.
Высота                           : 288 пикс.
Соотношение сторон               : 2,500
Частота кадров                   : 23,976 кадр/сек
Цветовое пространство            : YUV
Подвыборка цветности             : 4:2:0
Битовая глубина                  : 8 бит
Тип развёртки                    : Прогрессивная
Метод сжатия                     : С потерями
Бит/(Пиксели*Кадры)              : 0.411
Размер потока                    : 1,33 Гбайт (91%)
Библиотека кодирования           : XviD 1.2.1 (UTC 2008-12-04)

Аудио
Идентификатор                    : 1
Формат                           : AC-3
Формат/Информация                : Audio Coding 3
Расширение режима                : CM (complete main)
Идентификатор кодека             : 2000
Продолжительность                : 1 ч. 33 м.
Вид битрейта                     : Постоянный
Битрейт                          : 192 Кбит/сек
Каналы                           : 2 канала
Расположение каналов             : Front: L R
Частота                          : 48,0 КГц
Битовая глубина                  : 16 бит
Метод сжатия                     : С потерями
Размер потока                    : 128 Мбайт (9%)
Выравнивание                     : Разделение по промежуткам
Продолжительность промежутка     : 42  мс. (1,00 видеокадр)
Время предзагрузки промежутка    : 500 ms

Скриншоты:


Время раздачи: 24/7 по возможности
[NNM-Club.me]_Kozyi.2013.WEBDLRip.avi.torrent
 Торрент: Платиновая раздача  Зарегистрирован
 
Скачать


Примагнититься
 Зарегистрирован:   25 Фев 2014 14:35:15
 Размер:   1,46 GB  (
 Рейтинг:   4,9 (Голосов: 36)
 Поблагодарили:   185
 Проверка:   Оформление проверено модератором 26 Фев 2014 00:48:56
Как cкачать  ·  Как раздать  ·  Правильно оформить  ·  Поднять ратио!  
maldoror666

Online
Стаж: 8 лет 9 мес.
Сообщений: 1861
Ratio: 33,586
100%
как ни странно, мне понравился. детский но добрый. фильм простенький но надо же с чего то начинать российскому продюсеру Роднянскому на американской земле...) только они там не открытиями занимаются три дня, а воруют все подряд )) Вэл Килмер хорош, переигрывает всех, хотя его там мало. был не так давно похожий фильм, не могу вспомнить название, тот все же лучше
DaymosJeka
Стаж: 7 лет 6 мес.
Сообщений: 39
Ratio: 15,742
Поблагодарили: 145
100%
russia.gif
Фильм достойный, интересный, потому что при просмотре я просто забыл о времени и полностью погрузился в него, до того момента пока не увидел титры, единственное что меня немного смущает так это очки главных героев :), события в фильме вроде бы происходят в наши дни, а очки как в 50-ых, этакий режиссерский ход, дабы показать зрителю что главные герои не такие как все, что они в своем возрасте в значительной мере отстают в социальном развитии.
Dmitri812
Стаж: 8 лет 7 мес.
Сообщений: 882
Ratio: 5,537
Поблагодарили: 152
100%
russia.gif
милый семейный, детский фильм
Показать сообщения:   
Начать новую тему   Ответить на тему    Торрент-трекер NNM-Club -> Видео -> Зарубежные Фильмы для детей Часовой пояс: GMT + 3
Страница 1 из 1