Интеллигентный торрент-трекер
Нас вместе: 3 664 099 | Новости торрент-трекера | Как тут скачивать? | Как раздавать торренты? | Правила оформления

Морозилка / Freezer (2014) BDRip [720p] [EN]


 
 
RSS
Начать новую тему   Ответить на тему    Торрент-трекер NNM-Club -> Зарубежное кино -> Фильмы в оригинале (HD)
Предыдущая тема :: Следующая тема  
Автор Сообщение
smaster67 ®
Покровитель талантов
Uploader 100+
 


Стаж: 5 лет 2 месяцa
Сообщений: 3977
Ratio: 102,07
Поблагодарили: 93419
100%

Сообщение 08 Янв 2014 00:50:40  Заголовок сообщения: Морозилка / Freezer (2014) BDRip [720p] [EN] Ответить с цитатой

Морозилка / Freezer (2014) BDRip [720p] [EN]
Год выпуска: 2014
Жанр: Боевик, Триллер

Описание фильма:
Роберт (Дилан МакДермотт) жил обычной жизнью. Пока однажды, придя в себя, этот персонаж фильма «Морозилка» (Freezer) не обнаружил, что заперт в промышленном морозильнике. Захватившие его русские головорезы настаивают, что он украл у них 8 миллионов долларов, и требуют их вернуть. Проблема только в том, что Роберт понятия не имеет, о чем они говорят.
Вскоре он обнаруживает, что не один – в морозильнике, спрятавшись в коробках, сидит также некто Сэм (Питер Фачинелли). Не будучи уверенными друг в друге, но вынужденные сотрудничать, герои триллера «Морозилка» объединяют силы ради борьбы за свои жизни. И правда медленно, шаг за шагом, начинает выходить наружу…

Режиссер: Микаэл Саломон
Актеры: Дилан МакДермотт, Питер Фачинелли, Юлия Снигирь, Дэвид МакНалли, Паскаль Петарди, Милан Малисич, Андрей Ивченко

Продолжительность: 01:22:10
Качество видео: BDRip
Перевод: Отсутствует
Язык: Английский



Видеокодек: MPEG-4 AVC/H.264
Битрейт видео: ~5 066 Kbps
Размер кадра: 1280x536
Аудиокодек: AC3 5.1
Битрейт аудио: 640 Kbps
Сэмпл: Ссылка
Freezer.720p.mkv
Format : Matroska
Format version : Version 2
File size : 3.27 GiB
Duration : 1h 22mn
Overall bit rate : 5 705 Kbps
Writing application : mkvmerge v4.1.1 ('Bouncin' Back') built on Jul 3 2010 22:54:08
Writing library : libebml v1.0.0 + libmatroska v1.0

Video
ID : 1
Format : AVC
Format/Info : Advanced Video Codec
Format profile : High@L3.1
Format settings, CABAC : Yes
Format settings, ReFrames : 5 frames
Codec ID : V_MPEG4/ISO/AVC
Duration : 1h 22mn
Bit rate : 5 066 Kbps
Width : 1 280 pixels
Height : 536 pixels
Display aspect ratio : 2.40:1
Frame rate : 23.976 fps
Color space : YUV
Chroma subsampling : 4:2:0
Bit depth : 8 bits
Scan type : Progressive
Bits/(Pixel*Frame) : 0.308
Stream size : 2.84 GiB (87%)
Writing library : x264 core 140 r2377 1ca7bb9
Encoding settings : cabac=1 / ref=5 / deblock=1:0:0 / analyse=0x3:0x133 / me=umh / subme=7 / psy=1 / psy_rd=1.00:0.00 / mixed_ref=1 / me_range=16 / chroma_me=1 / trellis=1 / 8x8dct=1 / cqm=0 / deadzone=21,11 / fast_pskip=0 / chroma_qp_offset=-2 / threads=18 / lookahead_threads=3 / sliced_threads=0 / nr=0 / decimate=1 / interlaced=0 / bluray_compat=0 / constrained_intra=0 / bframes=3 / b_pyramid=2 / b_adapt=2 / b_bias=0 / direct=3 / weightb=1 / open_gop=0 / weightp=2 / keyint=250 / keyint_min=23 / scenecut=40 / intra_refresh=0 / rc_lookahead=50 / rc=2pass / mbtree=1 / bitrate=5066 / ratetol=1.0 / qcomp=0.60 / qpmin=0 / qpmax=69 / qpstep=4 / cplxblur=20.0 / qblur=0.5 / ip_ratio=1.40 / aq=1:1.00
Language : English
Default : Yes
Forced : No

Audio
ID : 2
Format : AC-3
Format/Info : Audio Coding 3
Mode extension : CM (complete main)
Format settings, Endianness : Big
Codec ID : A_AC3
Duration : 1h 22mn
Bit rate mode : Constant
Bit rate : 640 Kbps
Channel(s) : 6 channels
Channel positions : Front: L C R, Side: L R, LFE
Sampling rate : 48.0 KHz
Bit depth : 16 bits
Compression mode : Lossy
Stream size : 376 MiB (11%)
Language : English
Default : Yes
Forced : No

Menu
00:00:00.000 : en:00:00:00.000
00:08:02.732 : en:00:08:02.732
00:15:16.874 : en:00:15:16.874
00:21:51.227 : en:00:21:51.227
00:32:45.672 : en:00:32:45.672
00:41:03.670 : en:00:41:03.670
00:44:45.683 : en:00:44:45.683
00:53:27.663 : en:00:53:27.663
00:58:06.108 : en:00:58:06.108
01:09:29.999 : en:01:09:29.999
01:13:34.118 : en:01:13:34.118
01:19:56.041 : en:01:19:56.041
Скриншоты:


Время раздачи: с 13:00 до 23:00
[NNM-Club.me]_Freezer.720p.mkv.torrent
 Торрент: Серебряная раздча  Зарегистрирован
 
Примагнититься

Зарегистрируйтесь и скачайте торрент!
 Зарегистрирован:   08 Янв 2014 00:50:40
 Размер:   3,27 GB  (
 Рейтинг:   4,6 (Голосов: 13)
 Поблагодарили:   54
 Проверка:   Оформление проверено модератором 08 Янв 2014 10:12:23
Как cкачать  ·  Как раздать  ·  Правильно оформить  ·  Поднять ратио!  
Показать сообщения:   
Начать новую тему   Ответить на тему    Торрент-трекер NNM-Club -> Зарубежное кино -> Фильмы в оригинале (HD) Часовой пояс: GMT + 4
Страница 1 из 1