Интеллигентный торрент-трекер
Нас вместе: 3 745 937 | Новости торрент-трекера | Как тут скачивать? | Как раздавать торренты? | Правила оформления

Скачать бесплатно торрент Особая личность / Dak siu san fan / Special ID (2013) DVDScr torrent download


 
 
RSS
Начать новую тему   Ответить на тему    Торрент-трекер NNM-Club -> Архив торрентов -> Архив неактуальных экранок
Предыдущая тема :: Следующая тема 
Автор Сообщение
s-v-s ®
Стаж: 4 года
Сообщений: 163
Ratio: 40,822
Поблагодарили: 27101
100%
Сообщение 21 Дек 2013 02:38:23  Заголовок сообщения: Особая личность / Dak siu san fan / Special ID (2013) DVDScr Ответить с цитатой

Особая личность / Dak siu san fan / Special ID (2013) DVDScr
Год выпуска: 2013
Производство: Китай, Гонконг
Жанр: Боевик, Триллер, Криминал
Перевод: Двуголосый закадровый, любительский
Озвучка / Автор перевода: GREEN TEA
Субтитры: Вшитые неотключаемые
Язык субтитров: Английский и Китайский

Дата мировой премьеры: 18 октября 2013

Режиссер: Кларенс Фок Ииу-леунг
Продюсер: Питер Пау, Чжан Ванг
Актеры: Тянь Цзин, Донни Ен, Энди Он, Рональд Чэн, Колин Чоу, Теренс Йин, Чжиган Ян, Чжан Ханьюй, Хи Чинг Пав, Чеунг-Чинг Мак

Описание фильма:
Чэнь Цзылун это сотрудник полиции под прикрытием, глубоко внедрившийся в ряды одной из самых жестоких банд Китая. Сюн, главарь банды, поставил себе главную задачу — отыскать правительственных агентов, втесавшихся в его окружение. Теперь Чэнь разрывается на два фронта: старается уберечь свою семью от распада и сохранить в тайне собственную личность. Ставки с течением времени растут, т. к. с его товарищами по прикрытию поочерёдно расправляются, и Чэнь начинает опасаться, что его дни сочтены. Теперь ему придётся рискнуть всем, чтобы прикрыть преступную группировку и возвратить себе жизнь, которой он лишился, когда взялся за это опасное задание.



Продолжительность: 01:38:56
Качество видео: DVDScr

Видеокодек: Xvid
Битрейт видео: ~1775 kb/s
Размер кадра: 720x368
Аудиокодек: AC3 2.0
Битрейт аудио: 192 kb/s
Сэмпл: Скачать
Полное имя : Special.ID.2013.L2.WEBRip.1400MB.avi
Формат : AVI
Формат/Информация : Audio Video Interleave
Размер файла : 1,37 Гбайт
Продолжительность : 1 ч. 38 м.
Общий поток : 1976 Кбит/сек
Программа кодирования : VirtualDubMod 1.5.10.3 | www.virtualdub-fr.org || (build 2550/release)
Библиотека кодирования : VirtualDubMod build 2550/release

Видео
Идентификатор : 0
Формат : MPEG-4 Visual
Профиль формата : Advanced Simple@L5
Параметр BVOP формата : 1
Параметр QPel формата : Нет
Параметр GMC формата : Без точки перехода
Параметр матрицы формата : Default (H.263)
Идентификатор кодека : XVID
Идентификатор кодека/Подсказка : XviD
Продолжительность : 1 ч. 38 м.
Битрейт : 1775 Кбит/сек
Ширина : 720 пикселей
Высота : 368 пикселей
Соотношение сторон : 1,957
Частота кадров : 23,976 кадра/сек
Цветовое пространство : YUV
Субдискретизация насыщенности : 4:2:0
Битовая глубина : 8 бит
Тип развёртки : Прогрессивная
Метод сжатия : С потерями
Бит/(Пиксели*Кадры) : 0.279
Размер потока : 1,23 Гбайт (90%)
Библиотека кодирования : XviD 1.2.1 (UTC 2008-12-04)

Аудио
Идентификатор : 1
Формат : AC-3
Формат/Информация : Audio Coding 3
Расширение режима : CM (complete main)
Параметр Endianness формата : Big
Идентификатор кодека : 2000
Продолжительность : 1 ч. 38 м.
Вид битрейта : Постоянный
Битрейт : 192 Кбит/сек
Каналы : 2 канала
Расположение каналов : Front: L R
Частота : 48,0 КГц
Битовая глубина : 16 бит
Метод сжатия : С потерями
Размер потока : 136 Мбайт (10%)
Выравнивание : Разделение по промежуткам
Продолжительность промежутка : 42 мс. (1,00 видеокадр)
Время предзагрузки промежутка : 500 мс.
Скриншоты:

Время раздачи: 16:00-02:00
[NNM-Club.me]_Special.ID.2013.L2.WEBRip.1400MB.avi.torrent
 Торрент:   Зарегистрирован
 
Примагнититься

Зарегистрируйтесь и скачайте торрент!
 Зарегистрирован:   21 Дек 2013 02:38:23
 Размер:   1,37 GB  (
 Рейтинг:   4,7 (Голосов: 53)
 Поблагодарили:   196
 Проверка:   Оформление проверено модератором 21 Дек 2013 06:22:56
Как cкачать  ·  Как раздать  ·  Правильно оформить  ·  Поднять ратио!  


Последний раз редактировалось: s-v-s (21 Дек 2013 05:16:31), всего редактировалось 2 раз(а)
ЖОRIK
Стаж: 3 года 9 мес.
Сообщений: 230
Ratio: 139,672
Раздал: 11,38 TB
Поблагодарили: 353
100%
ussr.gif
Сообщение 21 Дек 2013 07:03:37  Заголовок сообщения: Ответить с цитатой

Обратно китайци!!! Скоро вси фильмы будут выпускать китайци :респект:
Aleks78m
Стаж: 2 года 1 мес.
Сообщений: 10
Ratio: 1,523
0.31%
Сообщение 21 Дек 2013 10:43:10  Заголовок сообщения: Ответить с цитатой

Наконец то новый боевик с Донни Йеном ! По трейлеру -крутые драки,заценим.
blertrift
Стаж: 4 года
Сообщений: 225
Ratio: 6,07
Поблагодарили: 381
0.23%
Откуда: Izhevsk
russia.gif
Сообщение 21 Дек 2013 10:58:29  Заголовок сообщения: Ответить с цитатой

Aleks78m писал(а): Перейти к сообщению
Наконец то новый боевик с Донни Йеном ! По трейлеру -крутые драки,заценим.


Хороший Актер :смущение:
ivano​ff_ol​eg​
Стаж: 2 года 3 мес.
Сообщений: 22
Ratio: 3,804
100%
ussr.gif
Сообщение 21 Дек 2013 11:17:39  Заголовок сообщения: Ответить с цитатой

Премного благодарен!!! :клево:
Jtac
Стаж: 5 лет 1 мес.
Сообщений: 73
Ratio: 9,436
Раздал: 7,16 TB
0.29%
russia.gif
Сообщение 21 Дек 2013 13:47:31  Заголовок сообщения: Ответить с цитатой

Донни Ену 50 лет уже офигеть...
takwando
Стаж: 2 года 3 мес.
Сообщений: 13
Ratio: 18,027
85.79%
Сообщение 21 Дек 2013 15:05:00  Заголовок сообщения: Ответить с цитатой

у меня есть HDRip качество. Как можно добавить звуковую дорожку из этого DVDScr в HDRip ?

или вы сами можете скачать этот фильм в HDRip качестве. Напишите мне в личку дам сылку. Там надо зарегистрироваться если что.
NNI-Bravo
Стаж: 6 лет 1 мес.
Сообщений: 420
Ratio: 9,015
Поблагодарили: 729
95.35%
Откуда: Украина
Сообщение 22 Дек 2013 23:46:11  Заголовок сообщения: Ответить с цитатой

Донни Ен отличный актер.
Спасибо за релиз.

_________________
Малое знание — опасная вещь, впрочем, как и большое.

©А.Эйнштейн
SedbeS
Стаж: 3 года 4 мес.
Сообщений: 94
Ratio: 3,806
3.86%
Сообщение 23 Дек 2013 23:15:13  Заголовок сообщения: Ответить с цитатой

2/3 фильма орут, тыкают пальцами друг в друга, потом дерутся, прыгают с 4-5 этажей, драки странные, сюжет как то не логичен, посмотрел и забыл...
З.Ы. интересно сколько Вольво заплатила за пиар своих тачек)
mrumka
Стаж: 7 лет 4 мес.
Сообщений: 9
Ratio: 0,544
0.31%
Сообщение 24 Дек 2013 07:45:44  Заголовок сообщения: Ответить с цитатой

Вольво сейчас китацам принадлежит, скорей всего под контору и весь фильм делалася ))
Сообщение 04 Янв 2014 06:00:49

Топик был перенесен из форума Экранки в форум Архив неактуальных экранок

Причина переноса: https://nnm-club.me/forum/viewtopic.php?t=741233
Lelya_K
Показать сообщения:   
Начать новую тему   Ответить на тему    Торрент-трекер NNM-Club -> Архив торрентов -> Архив неактуальных экранок Часовой пояс: GMT + 4
Страница 1 из 1