Интеллигентный торрент-трекер
Нас вместе: 3 609 234 | Новости торрент-трекера | Как тут скачивать? | Как раздавать торренты? | Правила оформления

Скачать бесплатно торрент Праздник для убийцы / Killer Holiday (2013) HDRip torrent download


 
 
RSS
Начать новую тему   Ответить на тему    Торрент-трекер NNM-Club -> Горячие новинки -> Зарубежные Новинки (HD*Rip/LQ, DVDRip)
Предыдущая тема :: Следующая тема 
Автор Сообщение
Sедой ®
RG Releasers
 


Стаж: 3 года 11 мес.
Сообщений: 3060
Ratio: 4970,76
Поблагодарили: 596519
100%
Откуда: Донецк

Сообщение 20 Дек 2013 17:29:14  Заголовок сообщения: Праздник для убийцы / Killer Holiday (2013) HDRip Ответить с цитатой

Праздник для убийцы / Killer Holiday (2013) HDRip«a KILLER thriller»
Год выпуска: 2013
Производство: США / RIDICULOUS Pictures
Жанр: Ужасы, Триллер
Перевод: Двуголосый закадровый, любительский (DeadSno & den904)
Субтитры: Отсутствуют

Дата мировой премьеры: 5 ноября 2013

Режиссер: Марти Томас
Продюсер: Майкл Копон, Марти Томас, Джон Цубер
Актеры: Майкл Копон, Рэйчел Лара, Джулия Бет Штерн, Алекс Мэндел, Рэйчел Уиксом, Мэтт Кэллоуэй, David Namminga, Noah Gibbings, Гэбриел Оливера, Рич Хоаг

Описание фильма:
Когда восемь подростков, отправившихся весело провести выходные, сворачивают с трассы 66 к заброшенному парку развлечений, начинается кровавая бойня, устроенная психопатом убийцей по четкому плану.



Продолжительность: 01:29:15
Качество видео: HDRip

Видеокодек: DivX 5
Битрейт видео: ~1294 Kbit/s
Размер кадра: 720 x 304
Аудио #1: AC3, 48,0 КHz, 5.1, 448 Kbit/s - Русский
Aудио #2: AC3, 48,0 КHz, 5.1, 448 Kbit/s - Aнглийский
Общее
Полное имя : D:\Торренты\ФИЛЬМЫ торента\Праздник для убийцы.2013.HDRip.avi
Формат : AVI
Формат/Информация : Audio Video Interleave
Размер файла : 1,37 Гбайт
Продолжительность : 1 ч. 29 м.
Общий поток : 2205 Кбит/сек
Программа кодирования : VirtualDubModRus 1.5.10.2 (build 2542/release)
Библиотека кодирования : VirtualDubMod build 2542/release

Видео
Идентификатор : 0
Формат : MPEG-4 Visual
Профиль формата : Advanced Simple@L5
Параметр BVOP формата : 2
Параметр QPel формата : Нет
Параметр GMC формата : Без точки перехода
Параметр матрицы формата : Default (H.263)
Идентификатор кодека : DX50
Идентификатор кодека/Подсказка : DivX 5
Продолжительность : 1 ч. 29 м.
Битрейт : 1294 Кбит/сек
Ширина : 720 пикс.
Высота : 304 пикс.
Соотношение сторон : 2,35:1
Частота кадров : 23,976 кадр/сек
Цветовое пространство : YUV
Подвыборка цветности : 4:2:0
Битовая глубина : 8 бит
Тип развёртки : Прогрессивная
Метод сжатия : С потерями
Бит/(Пиксели*Кадры) : 0.247
Размер потока : 826 Мбайт (59%)
Библиотека кодирования : XviD 64

Аудио #1
Идентификатор : 1
Формат : AC-3
Формат/Информация : Audio Coding 3
Расширение режима : CM (complete main)
Идентификатор кодека : 2000
Продолжительность : 1 ч. 29 м.
Вид битрейта : Постоянный
Битрейт : 448 Кбит/сек
Каналы : 6 каналов
Расположение каналов : Front: L C R, Side: L R, LFE
Частота : 48,0 КГц
Битовая глубина : 16 бит
Метод сжатия : С потерями
Размер потока : 286 Мбайт (20%)
Выравнивание : Разделение по промежуткам
Продолжительность промежутка : 42 мс. (1,00 видеокадр)
Время предзагрузки промежутка : 500 ms

Аудио #2
Идентификатор : 2
Формат : AC-3
Формат/Информация : Audio Coding 3
Расширение режима : CM (complete main)
Идентификатор кодека : 2000
Продолжительность : 1 ч. 29 м.
Вид битрейта : Постоянный
Битрейт : 448 Кбит/сек
Каналы : 6 каналов
Расположение каналов : Front: L C R, Side: L R, LFE
Частота : 48,0 КГц
Битовая глубина : 16 бит
Метод сжатия : С потерями
Размер потока : 286 Мбайт (20%)
Выравнивание : Разделение по промежуткам
Продолжительность промежутка : 42 мс. (1,00 видеокадр)
Время предзагрузки промежутка : 500 ms

Скриншоты:

Время раздачи: 24/7 по возможности
[NNM-Club.me]_Prazdnik dlya ubiytsyi.2013.HDRip.avi.torrent
 Торрент:   Зарегистрирован
 
Примагнититься

Зарегистрируйтесь и скачайте торрент!
 Зарегистрирован:   20 Дек 2013 17:29:14
 Размер:   1,37 GB  (
 Рейтинг:   4,2 (Голосов: 43)
 Поблагодарили:   168
 Проверка:   Оформление проверено модератором 20 Дек 2013 18:03:01
Как cкачать  ·  Как раздать  ·  Правильно оформить  ·  Поднять ратио!  
Devel87


Стаж: 11 мес. 9 дней
Сообщений: 922
Ratio: 35,031
100%
vietnam.gif

Сообщение 20 Дек 2013 17:49:55  Заголовок сообщения: Ответить с цитатой

Неплохое кино.Когда нечем заняться,то можно глянуть.Благодарю за труды
Kinoed


Стаж: 3 года 1 мес.
Сообщений: 63
Ratio: 13,566
16.22%
russia.gif

Сообщение 20 Дек 2013 18:10:57  Заголовок сообщения: Ответить с цитатой

{Хоспади! Опять подростки и кровавая баня! )))
Гляну, напишу что и как было. Есть опасение, что не все выжили, а фильм - бяка))) :лол:
Тилик


Стаж: 1 год 5 мес.
Сообщений: 45
Ratio: 10,824
11.84%

Сообщение 20 Дек 2013 18:17:27  Заголовок сообщения: Ответить с цитатой

Не очень то фильм... Слегка нудновато показалось.. Ожидания не оправдались...
brato​k_rea​l​


Стаж: 3 года 2 мес.
Сообщений: 153
Ratio: 8,725
Поблагодарили: 130
27%

Сообщение 20 Дек 2013 21:09:19  Заголовок сообщения: Ответить с цитатой

рейтинг доставляет :)
orion319


Стаж: 4 года 2 мес.
Сообщений: 388
Ratio: 3,187
Раздал: 1,813 TB
Поблагодарили: 597
100%
Откуда: из Столицы
pirates.png

Сообщение 20 Дек 2013 22:21:56  Заголовок сообщения: Ответить с цитатой

Перевод весь фильм портит, тональность нудная, монотонная в одном диапазоне, а фильм ничего так то, просто сон, спасиба!
Георгий14


Стаж: 1 год 6 мес.
Сообщений: 180
Ratio: 7,615
13.67%

Сообщение 20 Дек 2013 23:57:27  Заголовок сообщения: Ответить с цитатой

Ага. Глянул скрин. Негр есть.
Значит должен выжить негр и девка. Наверное брюнетка в розовом. А негр из-за толерантности.

Кто-нибудь ответьте, угадал ли я?
Kinoed


Стаж: 3 года 1 мес.
Сообщений: 63
Ratio: 13,566
16.22%
russia.gif

Сообщение 21 Дек 2013 01:27:15  Заголовок сообщения: Ответить с цитатой

Георгий14 писал(а): Перейти к сообщению
Ага. Глянул скрин. Негр есть.
Значит должен выжить негр и девка. Наверное брюнетка в розовом. А негр из-за толерантности.

Кто-нибудь ответьте, угадал ли я?
- Негр - труп. Брунетка - Труп ваще! - ей руку отчепятали и голову отчекрыжили)) :супер!:
Вобщем, фильм не доставил, как и ожидалось. Скукотища. Редкие моменты с убийствами так себе. Ну голову девушке отрубили - эка невидаль?! Можно не смотреть этот видеофильм, ничего не пропустите :ангел:
Показать сообщения:   
Начать новую тему   Ответить на тему    Торрент-трекер NNM-Club -> Горячие новинки -> Зарубежные Новинки (HD*Rip/LQ, DVDRip) Часовой пояс: GMT + 4
Страница 1 из 1