Интеллигентный торрент-трекер
canvas not supported
Нас вместе: 4 140 651

Отбросы / Misfits (2013) HDTVRip (сезон 5 полностью, серии 1-8 из 8) (Кубик В Кубе)


Страницы:   Пред.  1, 2 
 
RSS
Начать новую тему   Ответить на тему    Торрент-трекер NNM-Club -> Зарубежные сериалы -> Отбросы / Misfits
Автор Сообщение
atheist666 ®
Стаж: 10 лет 5 мес.
Сообщений: 575
Ratio: 38,015
Поблагодарили: 9253
23.17%
Откуда: Орск
russia.gif
Отбросы / Misfits (2013) HDTVRip (сезон 5 полностью, серии 1-8 из 8) (Кубик В Кубе)
Год выпуска: 2013
Жанр: Комедия, Криминал, Фантастика

Перевод: Двухголосый закадровый, профессиональный
Озвучка / Автор перевода: Кубик в Кубе
Релиз группа: Kubik3


Дата мировой премьеры: 23.10.2013

Режиссер: Том Грин, Том Харпер
Актеры: Натан МакМюллен, Карла Кром, Иван Реон, Лорен Соча, Роберт Шиэн

Описание фильма:
Сериал повествует о буднях молодых нарушителей закона, которые отрабатывают на общественных работах. Но если бы все так было просто... Еще не так давно, во время грозы, некоторые жители города получили различные способности. От управления сыром до бессмертия. И по великой случайности, у всех, кто отрабатывает в общественном центре, есть способности. Это способности превращают простые будни во что-то намного веселее. Будь это сражение с зомби или же предотвращение какого-либо события, которое изменило бы весь мир. В подарок к донорскому легкому Алекс получает новую способность. Второй Руди стал посещать группу поддержки людей, пострадавших от странной грозы. Фин становится главным агентом дьявола, позже на его сторону переходят и остальные. Единственным, кого не успела затронуть способность Фина, остался Алекс, и он решает спасти всех весьма необычным способом. Это финальный сезон сериала.

Продолжительность: ~00:45:00 серия
Качество видео: HDTVRip
Сэмпл: Скачать
Видеокодек: XviD
Битрейт видео: ~1047Kbit/s
Размер кадра: 640x360, 720x400
Аудио #1: MP3, 48.0 KHz, 2 ch, 128 Kbps, CBR (Русский)
Аудио #2: MP3, 48.0 KHz, 2 ch, 128 Kbps, VBR (Английский)
Общее
Формат : AVI
Формат/Информация : Audio Video Interleave
Размер файла : 429 Мбайт
Продолжительность : 45 м.
Режим общего битрейта : Переменный
Общий поток : 1317 Кбит/сек
Программа кодирования : VirtualDubMod 1.5.10.2 (build 2540/release)
Библиотека кодирования : VirtualDubMod build 2540/release

Видео
Идентификатор : 0
Формат : MPEG-4 Visual
Профиль формата : Advanced Simple@L5
Параметр BVOP формата : 2
Параметр QPel формата : Нет
Параметр GMC формата : Без точки перехода
Параметр матрицы формата : Default (H.263)
Идентификатор кодека : XVID
Идентификатор кодека/Подсказка : XviD
Продолжительность : 45 м.
Битрейт : 1047 Кбит/сек
Ширина : 640 пикселей
Высота : 360 пикселей
Соотношение сторон : 16:9
Частота кадров : 25,000 кадров/сек
Цветовое пространство : YUV
Субдискретизация насыщенности : 4:2:0
Битовая глубина : 8 бит
Тип развёртки : Прогрессивная
Метод сжатия : С потерями
Бит/(Пиксели*Кадры) : 0.182
Размер потока : 341 Мбайт (79%)
Библиотека кодирования : XviD 64

Аудио #1
Идентификатор : 1
Формат : MPEG Audio
Версия формата : Version 1
Профиль формата : Layer 3
Режим : Joint stereo
Идентификатор кодека : 55
Идентификатор кодека/Подсказка : MP3
Продолжительность : 45 м.
Вид битрейта : Постоянный
Битрейт : 128 Кбит/сек
Каналы : 2 канала
Частота : 48,0 КГц
Метод сжатия : С потерями
Размер потока : 41,7 Мбайт (10%)
Выравнивание : Соединение по промежуткам
Продолжительность промежутка : 40 мс. (1,00 видеокадр)
Время предзагрузки промежутка : 504 мс.

Аудио #2
Идентификатор : 2
Формат : MPEG Audio
Версия формата : Version 1
Профиль формата : Layer 3
Режим : Joint stereo
Расширение режима : MS Stereo
Идентификатор кодека : 55
Идентификатор кодека/Подсказка : MP3
Продолжительность : 45 м.
Вид битрейта : Переменный
Битрейт : 128 Кбит/сек
Каналы : 2 канала
Частота : 48,0 КГц
Метод сжатия : С потерями
Размер потока : 41,7 Мбайт (10%)
Выравнивание : Разделение по промежуткам
Продолжительность промежутка : 40 мс. (1,00 видеокадр)
Время предзагрузки промежутка : 500 мс.
Внимание! Раздача ведётся путём добавления новых серий; при каждом добавлении создаётся новый торрент. Чтобы начать докачку новой серии, пользователям необходимо сделать следующее:
(1) остановить скачивание,
(2) удалить старый торрент у себя из клиента (старые серии удалять не надо),
(3) скачать новый торрент и запустить его у себя в клиенте вместо старого, при этом указать клиенту путь в старую папку куда и должно происходить скачивание новых серий.

Ваш клиент при этом должен произвести хеширование (проверку) старой папки (если не производит сам - помогите ему сделать это), и будет докачивать только те серии которых у вас ещё нет. Старые серии при этом не удаляются, а продолжают раздаваться!

Eсли вы уже удалили старые серии, то предотвратить повторную закачку старых серий можно, отжав галочку в соответствующих местах при запуске нового торрента. По возможности, желательно не удалять старые серии как можно дольше чтобы релизёр не столько продолжал раздавать старые серии, а смог сконцентрироваться на новых.
Скриншоты:
Раздача "Отбросов" в 720р
Все релизы сериала «Отбросы»

Время раздачи: 24/7
 Торрент: Платиновая раздача  Зарегистрирован
 
Скачать


Примагнититься
 Зарегистрирован:   12 Дек 2013 14:25:58
 Размер:   3,82 GB  (
 Рейтинг:   4,9 (Голосов: 135)
 Поблагодарили:   446
 Проверка:   Оформление проверено модератором 12 Дек 2013 15:57:06
Как cкачать  ·  Как раздать  ·  Правильно оформить  ·  Поднять ратио!  

_________________
"Запретите мне! Я торчу на одном и том же! Запретите мне! Всё равно этот кайф прошёл!" ГрОб - Сон наоборот.
DL: 100Mbit/s, UL: 100Mbit/s
fedot​apaki​n​
Стаж: 10 лет 2 мес.
Сообщений: 48
Ratio: 7,752
Поблагодарили: 904
1.59%
Откуда: Barcelona
spain.gif
atheist666 писал(а): Перейти к сообщению
Добавлена 8я серия! Перекачайте раздачу! Сезон окончен. Сериал тоже.

Печалька.
Canni​bal40​4​
Стаж: 7 лет 3 мес.
Сообщений: 221
Ratio: 10,699
Поблагодарили: 8
3.04%
закрыли сериал?
genvol
Стаж: 6 лет 9 мес.
Сообщений: 654
Ratio: 0,486
100%
Откуда: Vilnius
lithuania.gif
:шок: Ну и  ! А перевод прямо от дыбилов - дыбилам
C-Monkey
Стаж: 8 лет
Сообщений: 241
Ratio: 50,185
100%
pirates.png
Все верно. ;)
Это она - та самая Европа, куда все жаждут попасть на ПМЖ. И это ее среднестатистический контингент. Все их фантазии и желания, даже если им сверхспособности дать.
ArchT​heEne​my​
Стаж: 7 лет 1 мес.
Сообщений: 27
Ratio: 9,986
7.39%
russia.gif
5й сезон гумно...и 4й туда же. Один Руди тянет все.
I-Alex
Стаж: 8 лет 6 мес.
Сообщений: 116
Ratio: 7,128
44.24%
honduras.gif
Очень понравился! Хочется посмотреть что-то с таким же уровнем юмора и сценария. Знаете подобные сериалы?
MS_DieseL.
Стаж: 7 лет 7 мес.
Сообщений: 341
Ratio: 1,524
Раздал: 1,2 TB
Поблагодарили: 204
8.79%
Откуда: Россия
russia.gif
Это пожалуй единственный сериал окончанию которого я разочарован(((

_________________
Мысли приводят к идеям, идеи приводят к действиям, действия приводят к результату, бездействие не приводит ни к чему!
Показать сообщения:   
Начать новую тему   Ответить на тему    Торрент-трекер NNM-Club -> Зарубежные сериалы -> Отбросы / Misfits Часовой пояс: GMT + 3
Страницы:   Пред.  1, 2
Страница 2 из 2

День смеха и юмора отмечается 1 апреля. В этот день принято шутить и разыгрывать друзей, коллег по работе, домашних, словом всех, с кем Вам предстоит увидеться в этот праздник – первое апреля. Первоапрельские розыгрыши, приколы на 1 апреля, первоапрельские шутки должны быть веселыми и безобидными. Приколы на 1 апреля, как правило, удаются в том случае, если человек забыл какой сегодня месяц и день, словом, забыл про 1 апреля – день смеха, шуток, день дурака.

Желаем Вам много улыбок и хорошего настроения в этот день!
С Уважением, администрация NNM-Club :)