Интеллигентный торрент-трекер
canvas not supported
Нас вместе: 4 140 652

Steven Price - Gravity: Original Motion Picture Soundtrack (2013) [FLAC|Lossless]<Soundtrack / Electronic>


 
 
RSS
Начать новую тему   Ответить на тему    Торрент-трекер NNM-Club -> Other Styles -> OST (Lossless)
Автор Сообщение
eroxxxa ®
Стаж: 9 лет 10 мес.
Сообщений: 467
Ratio: 91,221
Поблагодарили: 7811
100%
Откуда: Newgorod
ussr.gif
Steven Price - Gravity
Original Motion Picture Soundtrack

Год: 2013
Жанр: Soundtrack / Electronic
Продолжительность: 01:11:52
Страна-производитель диска: USA
Label: Water Tower Music / WTM39478
Кодек: FLAC
Битрейт: Lossless
Автор рипа: livingwithope
Треклист:
01. Above Earth (1:50)
02. Debris (4:25)
03. The Void (6:16)
04. Atlantis (3:43)
05. Don't Let Go (11:12)
06. Airlock (1:57)
07. ISS (2:53)
08. Fire (2:58)
09. Parachute (7:41)
10. In The Blind (3:08)
11. Aurora Borealis (1:43)
12. Aningaaq (5:09)
13. Soyuz (1:43)
14. Tiangong (6:28)
15. Shenzou (6:11)
16. Gravity (4:35)
Код:

foobar2000 1.2.2 / Dynamic Range Meter 1.1.1
log date: 2013-10-07 19:58:40

--------------------------------------------------------------------------------
Analyzed: Steven Price / Gravity: Original Motion Picture Soundtrack
--------------------------------------------------------------------------------

DR         Peak         RMS     Duration Track
--------------------------------------------------------------------------------
DR14      -0.17 dB   -21.04 dB      1:50 01-Above Earth
DR11      -0.17 dB   -14.04 dB      4:25 02-Debris
DR11      -0.17 dB   -14.45 dB      6:16 03-The Void
DR12      -0.17 dB   -15.38 dB      3:43 04-Atlantis
DR10      -0.17 dB   -15.37 dB     11:12 05-Don't Let Go
DR12     -11.09 dB   -28.95 dB      1:57 06-Airlock
DR10      -9.69 dB   -25.68 dB      2:53 07-ISS
DR11      -0.17 dB   -16.45 dB      2:58 08-Fire
DR11      -0.17 dB   -17.45 dB      7:41 09-Parachute
DR13      -0.17 dB   -17.60 dB      3:08 10-In The Blind
DR12     -13.69 dB   -33.17 dB      1:43 11-Aurora Borealis
DR16      -0.17 dB   -22.72 dB      5:09 12-Aningaaq
DR10     -10.05 dB   -27.74 dB      1:43 13-Soyuz
DR12      -0.17 dB   -15.50 dB      6:28 14-Tiangong
DR9       -0.17 dB   -11.39 dB      6:11 15-Shenzou
DR9       -0.17 dB   -14.16 dB      4:35 16-Gravity
--------------------------------------------------------------------------------

Number of tracks:  16
Official DR value: DR11

Samplerate:        44100 Hz
Channels:          2
Bits per sample:   16
Bitrate:           670 kbps
Codec:             FLAC
================================================================================

Код:

X Lossless Decoder version 20130720 (144.0)

XLD extraction logfile from 2013-10-07 00:31:29 -0700

Steven Price / Gravity: Original Motion Picture Soundtrack

Used drive : MATSHITA DVD-R   UJ-8A8 (revision HB14)
Media type : Pressed CD

Ripper mode             : XLD Secure Ripper
Disable audio cache     : OK for the drive with a cache less than 1375KiB
Make use of C2 pointers : NO
Read offset correction  : 102
Max retry count         : 20
Gap status              : Analyzed, Appended (except HTOA)

TOC of the extracted CD
     Track |   Start  |  Length  | Start sector | End sector
    ---------------------------------------------------------
        1  | 00:00:00 | 01:50:24 |         0    |     8273
        2  | 01:50:24 | 04:24:38 |      8274    |    28111
        3  | 06:14:62 | 06:15:62 |     28112    |    56298
        4  | 12:30:49 | 03:43:03 |     56299    |    73026
        5  | 16:13:52 | 11:11:41 |     73027    |   123392
        6  | 27:25:18 | 01:57:37 |    123393    |   132204
        7  | 29:22:55 | 02:53:26 |    132205    |   145205
        8  | 32:16:06 | 02:57:65 |    145206    |   158545
        9  | 35:13:71 | 07:40:52 |    158546    |   193097
       10  | 42:54:48 | 03:07:43 |    193098    |   207165
       11  | 46:02:16 | 01:43:14 |    207166    |   214904
       12  | 47:45:30 | 05:08:54 |    214905    |   238058
       13  | 52:54:09 | 01:42:69 |    238059    |   245777
       14  | 54:37:03 | 06:28:34 |    245778    |   274911
       15  | 61:05:37 | 06:11:15 |    274912    |   302751
       16  | 67:16:52 | 04:35:24 |    302752    |   323400

AccurateRip Summary
    Disc not found in AccurateRip DB.

All Tracks
    Album gain               : -2.11 dB
    Peak                     : 0.980682
    Statistics
        Read error                           : 0
        Jitter error (maybe fixed)           : 0
        Retry sector count                   : 0
        Damaged sector count                 : 0

Track 01
    Filename : /Users/colemontgomery/Desktop/Steven Price - Gravityпјљ Original Motion Picture Soundtrack (2013) [320]/01 Above Earth.mp3
               /Users/colemontgomery/Desktop/Steven Price - Gravityпјљ Original Motion Picture Soundtrack (2013) [FLAC]/01 Above Earth.flac
               /Users/colemontgomery/Desktop/Steven Price - Gravityпјљ Original Motion Picture Soundtrack (2013) [Apple Lossless]/01 Above Earth.m4a
    Pre-gap length : 00:02:00

    Track gain               : 5.82 dB
    Peak                     : 0.980682
    CRC32 hash (test run)    : 959A1B20
    CRC32 hash               : 959A1B20
    CRC32 hash (skip zero)   : C368C20E
    AccurateRip v1 signature : 77C9C35F
    AccurateRip v2 signature : EA24FBD3
        ->Track not present in AccurateRip database.
    Statistics
        Read error                           : 0
        Jitter error (maybe fixed)           : 0
        Retry sector count                   : 0
        Damaged sector count                 : 0

Track 02
    Filename : /Users/colemontgomery/Desktop/Steven Price - Gravityпјљ Original Motion Picture Soundtrack (2013) [320]/02 Debris.mp3
               /Users/colemontgomery/Desktop/Steven Price - Gravityпјљ Original Motion Picture Soundtrack (2013) [FLAC]/02 Debris.flac
               /Users/colemontgomery/Desktop/Steven Price - Gravityпјљ Original Motion Picture Soundtrack (2013) [Apple Lossless]/02 Debris.m4a

    Track gain               : -2.01 dB
    Peak                     : 0.980682
    CRC32 hash (test run)    : 085D5FC8
    CRC32 hash               : 085D5FC8
    CRC32 hash (skip zero)   : 1C4D78A6
    AccurateRip v1 signature : 1016755C
    AccurateRip v2 signature : 214FCA47
        ->Track not present in AccurateRip database.
    Statistics
        Read error                           : 0
        Jitter error (maybe fixed)           : 0
        Retry sector count                   : 0
        Damaged sector count                 : 0

Track 03
    Filename : /Users/colemontgomery/Desktop/Steven Price - Gravityпјљ Original Motion Picture Soundtrack (2013) [320]/03 The Void.mp3
               /Users/colemontgomery/Desktop/Steven Price - Gravityпјљ Original Motion Picture Soundtrack (2013) [FLAC]/03 The Void.flac
               /Users/colemontgomery/Desktop/Steven Price - Gravityпјљ Original Motion Picture Soundtrack (2013) [Apple Lossless]/03 The Void.m4a

    Track gain               : 1.53 dB
    Peak                     : 0.980682
    CRC32 hash (test run)    : C5D80768
    CRC32 hash               : C5D80768
    CRC32 hash (skip zero)   : F39E3303
    AccurateRip v1 signature : EBAA6948
    AccurateRip v2 signature : 501706F3
        ->Track not present in AccurateRip database.
    Statistics
        Read error                           : 0
        Jitter error (maybe fixed)           : 0
        Retry sector count                   : 0
        Damaged sector count                 : 0

Track 04
    Filename : /Users/colemontgomery/Desktop/Steven Price - Gravityпјљ Original Motion Picture Soundtrack (2013) [320]/04 Atlantis.mp3
               /Users/colemontgomery/Desktop/Steven Price - Gravityпјљ Original Motion Picture Soundtrack (2013) [FLAC]/04 Atlantis.flac
               /Users/colemontgomery/Desktop/Steven Price - Gravityпјљ Original Motion Picture Soundtrack (2013) [Apple Lossless]/04 Atlantis.m4a

    Track gain               : 2.85 dB
    Peak                     : 0.980621
    CRC32 hash (test run)    : B83B98CF
    CRC32 hash               : B83B98CF
    CRC32 hash (skip zero)   : 6B62F961
    AccurateRip v1 signature : 1860484B
    AccurateRip v2 signature : 2EBDDAEC
        ->Track not present in AccurateRip database.
    Statistics
        Read error                           : 0
        Jitter error (maybe fixed)           : 0
        Retry sector count                   : 0
        Damaged sector count                 : 0

Track 05
    Filename : /Users/colemontgomery/Desktop/Steven Price - Gravityпјљ Original Motion Picture Soundtrack (2013) [320]/05 Don't Let Go.mp3
               /Users/colemontgomery/Desktop/Steven Price - Gravityпјљ Original Motion Picture Soundtrack (2013) [FLAC]/05 Don't Let Go.flac
               /Users/colemontgomery/Desktop/Steven Price - Gravityпјљ Original Motion Picture Soundtrack (2013) [Apple Lossless]/05 Don't Let Go.m4a

    Track gain               : -0.75 dB
    Peak                     : 0.980682
    CRC32 hash (test run)    : DB29EC05
    CRC32 hash               : DB29EC05
    CRC32 hash (skip zero)   : 96FE267C
    AccurateRip v1 signature : 6AECDF71
    AccurateRip v2 signature : 0429B1E6
        ->Track not present in AccurateRip database.
    Statistics
        Read error                           : 0
        Jitter error (maybe fixed)           : 0
        Retry sector count                   : 0
        Damaged sector count                 : 0

Track 06
    Filename : /Users/colemontgomery/Desktop/Steven Price - Gravityпјљ Original Motion Picture Soundtrack (2013) [320]/06 Airlock.mp3
               /Users/colemontgomery/Desktop/Steven Price - Gravityпјљ Original Motion Picture Soundtrack (2013) [FLAC]/06 Airlock.flac
               /Users/colemontgomery/Desktop/Steven Price - Gravityпјљ Original Motion Picture Soundtrack (2013) [Apple Lossless]/06 Airlock.m4a

    Track gain               : 8.47 dB
    Peak                     : 0.278839
    CRC32 hash (test run)    : 2131C751
    CRC32 hash               : 2131C751
    CRC32 hash (skip zero)   : 96A894CE
    AccurateRip v1 signature : 218DC48A
    AccurateRip v2 signature : AB165751
        ->Track not present in AccurateRip database.
    Statistics
        Read error                           : 0
        Jitter error (maybe fixed)           : 0
        Retry sector count                   : 0
        Damaged sector count                 : 0

Track 07
    Filename : /Users/colemontgomery/Desktop/Steven Price - Gravityпјљ Original Motion Picture Soundtrack (2013) [320]/07 ISS.mp3
               /Users/colemontgomery/Desktop/Steven Price - Gravityпјљ Original Motion Picture Soundtrack (2013) [FLAC]/07 ISS.flac
               /Users/colemontgomery/Desktop/Steven Price - Gravityпјљ Original Motion Picture Soundtrack (2013) [Apple Lossless]/07 ISS.m4a

    Track gain               : 8.51 dB
    Peak                     : 0.327759
    CRC32 hash (test run)    : C8A5893E
    CRC32 hash               : C8A5893E
    CRC32 hash (skip zero)   : 526C4461
    AccurateRip v1 signature : 4EB1C137
    AccurateRip v2 signature : E2B2382E
        ->Track not present in AccurateRip database.
    Statistics
        Read error                           : 0
        Jitter error (maybe fixed)           : 0
        Retry sector count                   : 0
        Damaged sector count                 : 0

Track 08
    Filename : /Users/colemontgomery/Desktop/Steven Price - Gravityпјљ Original Motion Picture Soundtrack (2013) [320]/08 Fire.mp3
               /Users/colemontgomery/Desktop/Steven Price - Gravityпјљ Original Motion Picture Soundtrack (2013) [FLAC]/08 Fire.flac
               /Users/colemontgomery/Desktop/Steven Price - Gravityпјљ Original Motion Picture Soundtrack (2013) [Apple Lossless]/08 Fire.m4a

    Track gain               : -1.71 dB
    Peak                     : 0.980682
    CRC32 hash (test run)    : 9967DD09
    CRC32 hash               : 9967DD09
    CRC32 hash (skip zero)   : A4AF9E57
    AccurateRip v1 signature : 3BF8B17F
    AccurateRip v2 signature : 81F6DC27
        ->Track not present in AccurateRip database.
    Statistics
        Read error                           : 0
        Jitter error (maybe fixed)           : 0
        Retry sector count                   : 0
        Damaged sector count                 : 0

Track 09
    Filename : /Users/colemontgomery/Desktop/Steven Price - Gravityпјљ Original Motion Picture Soundtrack (2013) [320]/09 Parachute.mp3
               /Users/colemontgomery/Desktop/Steven Price - Gravityпјљ Original Motion Picture Soundtrack (2013) [FLAC]/09 Parachute.flac
               /Users/colemontgomery/Desktop/Steven Price - Gravityпјљ Original Motion Picture Soundtrack (2013) [Apple Lossless]/09 Parachute.m4a

    Track gain               : -1.16 dB
    Peak                     : 0.980682
    CRC32 hash (test run)    : 7C68D6D7
    CRC32 hash               : 7C68D6D7
    CRC32 hash (skip zero)   : 2B9F41C5
    AccurateRip v1 signature : 792EFA35
    AccurateRip v2 signature : EDFC9812
        ->Track not present in AccurateRip database.
    Statistics
        Read error                           : 0
        Jitter error (maybe fixed)           : 0
        Retry sector count                   : 0
        Damaged sector count                 : 0

Track 10
    Filename : /Users/colemontgomery/Desktop/Steven Price - Gravityпјљ Original Motion Picture Soundtrack (2013) [320]/10 In The Blind.mp3
               /Users/colemontgomery/Desktop/Steven Price - Gravityпјљ Original Motion Picture Soundtrack (2013) [FLAC]/10 In The Blind.flac
               /Users/colemontgomery/Desktop/Steven Price - Gravityпјљ Original Motion Picture Soundtrack (2013) [Apple Lossless]/10 In The Blind.m4a

    Track gain               : 5.72 dB
    Peak                     : 0.980682
    CRC32 hash (test run)    : F5490A9E
    CRC32 hash               : F5490A9E
    CRC32 hash (skip zero)   : 48FA0722
    AccurateRip v1 signature : B9F0CADE
    AccurateRip v2 signature : BBADDB33
        ->Track not present in AccurateRip database.
    Statistics
        Read error                           : 0
        Jitter error (maybe fixed)           : 0
        Retry sector count                   : 0
        Damaged sector count                 : 0

Track 11
    Filename : /Users/colemontgomery/Desktop/Steven Price - Gravityпјљ Original Motion Picture Soundtrack (2013) [320]/11 Aurora Borealis.mp3
               /Users/colemontgomery/Desktop/Steven Price - Gravityпјљ Original Motion Picture Soundtrack (2013) [FLAC]/11 Aurora Borealis.flac
               /Users/colemontgomery/Desktop/Steven Price - Gravityпјљ Original Motion Picture Soundtrack (2013) [Apple Lossless]/11 Aurora Borealis.m4a

    Track gain               : 12.43 dB
    Peak                     : 0.206757
    CRC32 hash (test run)    : C257ADC2
    CRC32 hash               : C257ADC2
    CRC32 hash (skip zero)   : 1F8E0F4A
    AccurateRip v1 signature : 3B9FF2A1
    AccurateRip v2 signature : E06070B7
        ->Track not present in AccurateRip database.
    Statistics
        Read error                           : 0
        Jitter error (maybe fixed)           : 0
        Retry sector count                   : 0
        Damaged sector count                 : 0

Track 12
    Filename : /Users/colemontgomery/Desktop/Steven Price - Gravityпјљ Original Motion Picture Soundtrack (2013) [320]/12 Aningaaq.mp3
               /Users/colemontgomery/Desktop/Steven Price - Gravityпјљ Original Motion Picture Soundtrack (2013) [FLAC]/12 Aningaaq.flac
               /Users/colemontgomery/Desktop/Steven Price - Gravityпјљ Original Motion Picture Soundtrack (2013) [Apple Lossless]/12 Aningaaq.m4a

    Track gain               : 7.93 dB
    Peak                     : 0.980682
    CRC32 hash (test run)    : 30F91874
    CRC32 hash               : 30F91874
    CRC32 hash (skip zero)   : C45A60D5
    AccurateRip v1 signature : 9B78C57C
    AccurateRip v2 signature : AD9EAB4E
        ->Track not present in AccurateRip database.
    Statistics
        Read error                           : 0
        Jitter error (maybe fixed)           : 0
        Retry sector count                   : 0
        Damaged sector count                 : 0

Track 13
    Filename : /Users/colemontgomery/Desktop/Steven Price - Gravityпјљ Original Motion Picture Soundtrack (2013) [320]/13 Soyuz.mp3
               /Users/colemontgomery/Desktop/Steven Price - Gravityпјљ Original Motion Picture Soundtrack (2013) [FLAC]/13 Soyuz.flac
               /Users/colemontgomery/Desktop/Steven Price - Gravityпјљ Original Motion Picture Soundtrack (2013) [Apple Lossless]/13 Soyuz.m4a
    Pre-gap length : 00:00:25

    Track gain               : 9.61 dB
    Peak                     : 0.314484
    CRC32 hash (test run)    : 8FE4DEFD
    CRC32 hash               : 8FE4DEFD
    CRC32 hash (skip zero)   : 3BB2C141
    AccurateRip v1 signature : FB0E2228
    AccurateRip v2 signature : AD6A662E
        ->Track not present in AccurateRip database.
    Statistics
        Read error                           : 0
        Jitter error (maybe fixed)           : 0
        Retry sector count                   : 0
        Damaged sector count                 : 0

Track 14
    Filename : /Users/colemontgomery/Desktop/Steven Price - Gravityпјљ Original Motion Picture Soundtrack (2013) [320]/14 Tiangong.mp3
               /Users/colemontgomery/Desktop/Steven Price - Gravityпјљ Original Motion Picture Soundtrack (2013) [FLAC]/14 Tiangong.flac
               /Users/colemontgomery/Desktop/Steven Price - Gravityпјљ Original Motion Picture Soundtrack (2013) [Apple Lossless]/14 Tiangong.m4a

    Track gain               : -2.42 dB
    Peak                     : 0.980652
    CRC32 hash (test run)    : 4CB46325
    CRC32 hash               : 4CB46325
    CRC32 hash (skip zero)   : 3491D069
    AccurateRip v1 signature : 34759AF0
    AccurateRip v2 signature : 5B2D8059
        ->Track not present in AccurateRip database.
    Statistics
        Read error                           : 0
        Jitter error (maybe fixed)           : 0
        Retry sector count                   : 0
        Damaged sector count                 : 0

Track 15
    Filename : /Users/colemontgomery/Desktop/Steven Price - Gravityпјљ Original Motion Picture Soundtrack (2013) [320]/15 Shenzou.mp3
               /Users/colemontgomery/Desktop/Steven Price - Gravityпјљ Original Motion Picture Soundtrack (2013) [FLAC]/15 Shenzou.flac
               /Users/colemontgomery/Desktop/Steven Price - Gravityпјљ Original Motion Picture Soundtrack (2013) [Apple Lossless]/15 Shenzou.m4a
    Pre-gap length : 00:01:18

    Track gain               : -4.76 dB
    Peak                     : 0.980682
    CRC32 hash (test run)    : 9274C50B
    CRC32 hash               : 9274C50B
    CRC32 hash (skip zero)   : 3284526F
    AccurateRip v1 signature : D70E93F7
    AccurateRip v2 signature : 9F7C03B7
        ->Track not present in AccurateRip database.
    Statistics
        Read error                           : 0
        Jitter error (maybe fixed)           : 0
        Retry sector count                   : 0
        Damaged sector count                 : 0

Track 16
    Filename : /Users/colemontgomery/Desktop/Steven Price - Gravityпјљ Original Motion Picture Soundtrack (2013) [320]/16 Gravity.mp3
               /Users/colemontgomery/Desktop/Steven Price - Gravityпјљ Original Motion Picture Soundtrack (2013) [FLAC]/16 Gravity.flac
               /Users/colemontgomery/Desktop/Steven Price - Gravityпјљ Original Motion Picture Soundtrack (2013) [Apple Lossless]/16 Gravity.m4a

    Track gain               : -5.42 dB
    Peak                     : 0.980682
    CRC32 hash (test run)    : 86B2CD8E
    CRC32 hash               : 86B2CD8E
    CRC32 hash (skip zero)   : 50A7E904
    AccurateRip v1 signature : 11C678B9
    AccurateRip v2 signature : A94C319C
        ->Track not present in AccurateRip database.
    Statistics
        Read error                           : 0
        Jitter error (maybe fixed)           : 0
        Retry sector count                   : 0
        Damaged sector count                 : 0

No errors occurred

End of status report
Код:

-----------------------

DON'T MODIFY THIS FILE

-----------------------

PERFORMER: auCDtect Task Manager, ver. 1.5.1RC6 build 1.5.1.7
Copyright (c) 2008-2010 y-soft. All rights reserved
http://y-soft.org

ANALYZER: auCDtect: CD records authenticity detector, version 0.8.2
Copyright (c) 2004 Oleg Berngardt. All rights reserved.
Copyright (c) 2004 Alexander Djourik. All rights reserved.

FILE: 16 Gravity.flac
  Size: 23046386 Hash: 6F83BA41578406A24C72865A4F113844 Accuracy: -m0
  Conclusion: CDDA 100%
  Signature: 4624FC834310780683021CE45EAF83E4CDDE03D9
FILE: 15 Shenzou.flac
  Size: 42495314 Hash: 18DA9B248AA96C6F12767EE2A3028BCC Accuracy: -m0
  Conclusion: CDDA 99%
  Signature: 93CE2C0E3A81B9E853F4A53F7C066809F8861280
FILE: 14 Tiangong.flac
  Size: 37484065 Hash: 6B92B0ABFBA05324B2792F78C5E1BE5F Accuracy: -m0
  Conclusion: CDDA 100%
  Signature: D02AA615FB9AFC09D83DC325E749CF63E32166AF
FILE: 13 Soyuz.flac
  Size: 5417451 Hash: D8D4D04AB5CCE698232A514208FCF18A Accuracy: -m0
  Conclusion: CDDA 99%
  Signature: 9FECBE43D589D0B159885163454E5BDDD9C39758
FILE: 12 Aningaaq.flac
  Size: 20102807 Hash: B42E353BA9C0B1031B8CD0A440C16DA3 Accuracy: -m0
  Conclusion: CDDA 100%
  Signature: AADD2367F5BFB3EB7C1EF827623CA2A06F7677F8
FILE: 11 Aurora Borealis.flac
  Size: 4032442 Hash: D8F92B3A8533DD32F6D1E2A31F778DE7 Accuracy: -m0
  Conclusion: CDDA 100%
  Signature: D36A48BC3D79F9FD1306F461ACB1F10B721443BB
FILE: 10 In The Blind.flac
  Size: 12707350 Hash: 20C44CC92E546759ED81355412E4D762 Accuracy: -m0
  Conclusion: CDDA 100%
  Signature: 826103E7E129611E86CF844F781343057623FDD7
FILE: 09 Parachute.flac
  Size: 35871958 Hash: D5B05149CAA625A1AAF0B70951AABBCC Accuracy: -m0
  Conclusion: CDDA 100%
  Signature: 2886ABD6192ADF1514588AC9B67B19593558D730
FILE: 08 Fire.flac
  Size: 13650124 Hash: D09CCC8E5BDB265D2985A72A4403393F Accuracy: -m0
  Conclusion: CDDA 100%
  Signature: E9E2F3ED32B0372ACB98E8A92D16BDADBE9CE31F
FILE: 07 ISS.flac
  Size: 9460827 Hash: 7DB5AC9CCF318ADED8A7398E2ECA9857 Accuracy: -m0
  Conclusion: CDDA 99%
  Signature: 876A6A3CDB9EEE1F045A1A00FC4955B76C237335
FILE: 06 Airlock.flac
  Size: 5031427 Hash: ADCA75B4EC5E7BFC50B75259B79D48D1 Accuracy: -m0
  Conclusion: CDDA 100%
  Signature: 40450F691F23986F62D2491BCC321328E51B9396
FILE: 05 Don't Let Go.flac
  Size: 53993388 Hash: 53B0074899C7BE0211C33F8B39D570D2 Accuracy: -m0
  Conclusion: CDDA 100%
  Signature: 34299E8A77F5001471E9274A5A1DAE415DF022B8
FILE: 04 Atlantis.flac
  Size: 16539488 Hash: E81D920955926C76E615FBD3EAE11CCA Accuracy: -m0
  Conclusion: CDDA 100%
  Signature: DABAF846DDB8A60AA2C227F47037F937D104F8F0
FILE: 03 The Void.flac
  Size: 30372072 Hash: F115E2082240A13182184A19A7081A4E Accuracy: -m0
  Conclusion: CDDA 100%
  Signature: 9A049B8B65CDECA0E6134A906A537BD456F3999F
FILE: 02 Debris.flac
  Size: 24563040 Hash: 4068C1B10ED568B43B5961AFF480868B Accuracy: -m0
  Conclusion: CDDA 100%
  Signature: BE4A2A698BC98681CBB0BADE7872A82E00F75E75
FILE: 01 Above Earth.flac
  Size: 5716481 Hash: 5887F0887DF902EBF98F949601A85F7F Accuracy: -m0
  Conclusion: CDDA 100%
  Signature: AB5001071DBCC485904B70AD8A41CACF324A4729
Все спасибо уходят Nick Fisher,а так же whatcd
Время раздачи: 24/7 7200 min


Поглощение/вытеснение
Только с согласия релизера

J_Man
 Торрент: Золотая раздача  Зарегистрирован
 
Зарегистрируйтесь и скачайте торрент!
13,9 KB

Примагнититься
 Зарегистрирован:   07 Окт 2013 19:20:33
 Размер:   325 MB  (
 Рейтинг:   4,8 (Голосов: 20)
 Поблагодарили:   84
 Проверка:   Оформление проверено модератором 11 Окт 2013 11:11:24
Как cкачать  ·  Как раздать  ·  Правильно оформить  ·  Поднять ратио!  
eroxxxa ®
Стаж: 9 лет 10 мес.
Сообщений: 467
Ratio: 91,221
Поблагодарили: 7811
100%
Откуда: Newgorod
ussr.gif
Атмосфера открытого космоса передана изумительно.
Колыч
Модератор Музыки
Спонсор Uploader 1000+
Стаж: 10 лет 2 мес.
Сообщений: 7803
Ratio: 11K
Поблагодарили: 522507
100%
eroxxxa
Это фильм?
eroxxxa ®
Стаж: 9 лет 10 мес.
Сообщений: 467
Ratio: 91,221
Поблагодарили: 7811
100%
Откуда: Newgorod
ussr.gif
Колыч
Музыка к фильму.Вроде с разделом не промахнулся.
ShevaVSS
Стаж: 6 лет
Сообщений: 19
Ratio: 8,611
Раздал: 526 GB
100%
pirates.png
Да, последняя композиция "Гравитация", просто взрыв мозга и мурашки по коже! А вот музыка "Не отпускай" (5 композиция), самая настоящая психоделика. Такая музыка лечит мои нервишки, особенно в наушниках закрытого типа =)
Да и спасибо автору за lossless!
muza000
Стаж: 5 лет 11 мес.
Сообщений: 248
Ratio: 55,858
100%
Супер.
Показать сообщения:   
Начать новую тему   Ответить на тему    Торрент-трекер NNM-Club -> Other Styles -> OST (Lossless) Часовой пояс: GMT + 3
Страница 1 из 1

День смеха и юмора отмечается 1 апреля. В этот день принято шутить и разыгрывать друзей, коллег по работе, домашних, словом всех, с кем Вам предстоит увидеться в этот праздник – первое апреля. Первоапрельские розыгрыши, приколы на 1 апреля, первоапрельские шутки должны быть веселыми и безобидными. Приколы на 1 апреля, как правило, удаются в том случае, если человек забыл какой сегодня месяц и день, словом, забыл про 1 апреля – день смеха, шуток, день дурака.

Желаем Вам много улыбок и хорошего настроения в этот день!
С Уважением, администрация NNM-Club :)