Интеллигентный торрент-трекер

Нас вместе: 3 659 471 | Новости торрент-трекера | Как тут скачивать? | Как раздавать торренты? | Правила оформления

Скачать бесплатно торрент Миллионер: жизнь сначала (Выпуски 1-4) / Мільйонер: життя спочатку (2013) SATRip [RUS/UKR] [Обновляемая] torrent download


 
 
RSS
Начать новую тему   Ответить на тему    Торрент-трекер NNM-Club -> Документалистика и Телепередачи -> Телешоу
Предыдущая тема :: Следующая тема 
Автор Сообщение
birtasu ®


Стаж: 3 года 4 мес.
Сообщений: 304
Ratio: 63,783
Раздал: 2,666 TB
Поблагодарили: 6480
100%
Откуда: Тернополь
ukraine.gif

Сообщение 27 Сен 2013 02:13:09  Заголовок сообщения: Миллионер: жизнь сначала (Выпуски 1-4) / Мільйонер: життя спочатку (2013) SATRip [RUS/UKR] [Обновляемая] Ответить с цитатой

Миллионер: жизнь сначала (Выпуски 1-4) / Мільйонер: життя спочатку (2013) SATRip [RUS/UKR] [Обновляемая]
Русское название: Миллионер: жизнь сначала
Оригинальное название: Мільйонер: життя спочатку
Режиссер / Телекомпания: 1+1 Production
Год выпуска: 2013
Жанр: Правдивое реалити-шоу
Язык: Русский-Украинский

Описание:
В одну секунду потерять все. Связи, деньги, влияние в обществе, дорогие телефоны и автомобили. Макароны вместо омаров, пружинное кровать общежития вместо сотен квадратных метров загородных домов. И это реальность, хотя и телевизионная. Четверо украинских миллионеров отказались от всех своих благ и на неделю отправились почувствовать вкус жизни простых украинском в провинциях. Попробовали проверить, можно выжить в Украине без денег и связей. Первый выпуск программы будет посвящен памяти украинского автогонщику Вадиму Нестерчуку, который трагически погиб в пустыне во время подготовки к ралли. Вадим первым среди миллионеров без колебаний согласился принять участие в социальном эксперименте. Уникальный социальный эксперимент.

Продолжительность: Выпуск ~01:05:00

Качество видео: SATRip
Видеокодек: Xvid
Битрейт видео: ~2000 Кбит/сек
Размер кадра: 720x544
Аудиокодек: 48,0 КГц, 2 канала, MP3
Битрейт аудио: 192 Кбит/сек
Общее
Полное имя : Миллионер. жизнь сначала(01.Vipusk).(2013.09.03).2013.XviD.SATRip.avi
Формат : AVI
Формат/Информация : Audio Video Interleave
Размер файла : 1,05 Гбайт
Продолжительность : 1 ч. 1 м.
Общий поток : 2442 Кбит/сек
Программа кодирования : VirtualDubMod 1.5.10.3 | www.virtualdub-fr.org || (build 2550/release)
Библиотека кодирования : VirtualDubMod build 2550/release

Видео
Идентификатор : 0
Формат : MPEG-4 Visual
Профиль формата : Advanced Simple@L5
Параметр BVOP формата : 1
Параметр QPel формата : Нет
Параметр GMC формата : Без точки перехода
Параметр матрицы формата : Default (H.263)
Идентификатор кодека : XVID
Идентификатор кодека/Подсказка : XviD
Продолжительность : 1 ч. 1 м.
Битрейт : 2241 Кбит/сек
Ширина : 720 пикселей
Высота : 544 пикселя
Соотношение сторон : 4:3
Частота кадров : 25,000 кадров/сек
Цветовое пространство : YUV
Субдискретизация насыщенности : 4:2:0
Битовая глубина : 8 бит
Тип развёртки : Прогрессивная
Метод сжатия : С потерями
Бит/(Пиксели*Кадры) : 0.229
Размер потока : 990 Мбайт (92%)
Библиотека кодирования : XviD 1.2.1 (UTC 2008-12-04)

Аудио
Идентификатор : 1
Формат : MPEG Audio
Версия формата : Version 1
Профиль формата : Layer 3
Режим : Joint stereo
Расширение режима : MS Stereo
Идентификатор кодека : 55
Идентификатор кодека/Подсказка : MP3
Продолжительность : 1 ч. 1 м.
Вид битрейта : Постоянный
Битрейт : 192 Кбит/сек
Каналы : 2 канала
Частота : 48,0 КГц
Метод сжатия : С потерями
Размер потока : 84,8 Мбайт (8%)
Выравнивание : Соединение по промежуткам
Продолжительность промежутка : 40 мс. (1,00 видеокадр)
Время предзагрузки промежутка : 504 мс.
Библиотека кодирования : LAME3.98r
Настройки программы : -m j -V 4 -q 2 -lowpass 18.6 -b 192
Общее
Полное имя : Миллионер. жизнь сначала(02.Vipusk).(2013.09.10).2013.XviD.SATRip.avi
Формат : AVI
Формат/Информация : Audio Video Interleave
Размер файла : 1,05 Гбайт
Продолжительность : 1 ч. 0 м.
Общий поток : 2489 Кбит/сек
Программа кодирования : VirtualDubMod 1.5.10.3 | www.virtualdub-fr.org || (build 2550/release)
Библиотека кодирования : VirtualDubMod build 2550/release

Видео
Идентификатор : 0
Формат : MPEG-4 Visual
Профиль формата : Advanced Simple@L5
Параметр BVOP формата : 1
Параметр QPel формата : Нет
Параметр GMC формата : Без точки перехода
Параметр матрицы формата : Default (H.263)
Идентификатор кодека : XVID
Идентификатор кодека/Подсказка : XviD
Продолжительность : 1 ч. 0 м.
Битрейт : 2288 Кбит/сек
Ширина : 720 пикселей
Высота : 544 пикселя
Соотношение сторон : 4:3
Частота кадров : 25,000 кадров/сек
Цветовое пространство : YUV
Субдискретизация насыщенности : 4:2:0
Битовая глубина : 8 бит
Тип развёртки : Прогрессивная
Метод сжатия : С потерями
Бит/(Пиксели*Кадры) : 0.234
Размер потока : 992 Мбайт (92%)
Библиотека кодирования : XviD 1.2.1 (UTC 2008-12-04)

Аудио
Идентификатор : 1
Формат : MPEG Audio
Версия формата : Version 1
Профиль формата : Layer 3
Режим : Joint stereo
Расширение режима : MS Stereo
Идентификатор кодека : 55
Идентификатор кодека/Подсказка : MP3
Продолжительность : 1 ч. 0 м.
Вид битрейта : Постоянный
Битрейт : 192 Кбит/сек
Каналы : 2 канала
Частота : 48,0 КГц
Метод сжатия : С потерями
Размер потока : 83,2 Мбайт (8%)
Выравнивание : Соединение по промежуткам
Продолжительность промежутка : 40 мс. (1,00 видеокадр)
Время предзагрузки промежутка : 504 мс.
Библиотека кодирования : LAME3.98r
Настройки программы : -m j -V 4 -q 2 -lowpass 18.6 -b 192
Общее
Полное имя : Миллионер. жизнь сначала(03.Vipusk).(2013.09.24).2013.XviD.SATRip.avi
Формат : AVI
Формат/Информация : Audio Video Interleave
Размер файла : 1,05 Гбайт
Продолжительность : 1 ч. 1 м.
Общий поток : 2441 Кбит/сек
Программа кодирования : VirtualDubMod 1.5.10.3 | www.virtualdub-fr.org || (build 2550/release)
Библиотека кодирования : VirtualDubMod build 2550/release

Видео
Идентификатор : 0
Формат : MPEG-4 Visual
Профиль формата : Advanced Simple@L5
Параметр BVOP формата : 1
Параметр QPel формата : Нет
Параметр GMC формата : Без точки перехода
Параметр матрицы формата : Default (H.263)
Идентификатор кодека : XVID
Идентификатор кодека/Подсказка : XviD
Продолжительность : 1 ч. 1 м.
Битрейт : 2239 Кбит/сек
Ширина : 720 пикселей
Высота : 544 пикселя
Соотношение сторон : 4:3
Частота кадров : 25,000 кадров/сек
Цветовое пространство : YUV
Субдискретизация насыщенности : 4:2:0
Битовая глубина : 8 бит
Тип развёртки : Прогрессивная
Метод сжатия : С потерями
Бит/(Пиксели*Кадры) : 0.229
Размер потока : 990 Мбайт (92%)
Библиотека кодирования : XviD 1.2.1 (UTC 2008-12-04)

Аудио
Идентификатор : 1
Формат : MPEG Audio
Версия формата : Version 1
Профиль формата : Layer 3
Режим : Joint stereo
Расширение режима : MS Stereo
Идентификатор кодека : 55
Идентификатор кодека/Подсказка : MP3
Продолжительность : 1 ч. 1 м.
Вид битрейта : Постоянный
Битрейт : 192 Кбит/сек
Каналы : 2 канала
Частота : 48,0 КГц
Метод сжатия : С потерями
Размер потока : 84,9 Мбайт (8%)
Выравнивание : Соединение по промежуткам
Продолжительность промежутка : 40 мс. (1,00 видеокадр)
Время предзагрузки промежутка : 504 мс.
Библиотека кодирования : LAME3.98r
Настройки программы : -m j -V 4 -q 2 -lowpass 18.6 -b 192
Общее
Полное имя : Миллионер. жизнь сначала(04.Vipusk).(2013.10.01).2013.XviD.SATRip.avi
Формат : AVI
Формат/Информация : Audio Video Interleave
Размер файла : 1005 Мбайт
Продолжительность : 53 м.
Общий поток : 2622 Кбит/сек
Программа кодирования : Lavf52.93.0

Видео
Идентификатор : 0
Формат : xvid
Идентификатор кодека : xvid
Продолжительность : 53 м.
Битрейт : 2417 Кбит/сек
Ширина : 720 пикселей
Высота : 576 пикселей
Соотношение сторон : 5:4
Частота кадров : 25,000 кадров/сек
Стандарт вещания : PAL
Бит/(Пиксели*Кадры) : 0.233
Размер потока : 927 Мбайт (92%)

Аудио
Идентификатор : 1
Формат : MPEG Audio
Версия формата : Version 1
Профиль формата : Layer 3
Режим : Joint stereo
Расширение режима : MS Stereo
Идентификатор кодека : 55
Идентификатор кодека/Подсказка : MP3
Продолжительность : 53 м.
Вид битрейта : Постоянный
Битрейт : 192 Кбит/сек
Каналы : 2 канала
Частота : 44,1 КГц
Метод сжатия : С потерями
Размер потока : 73,6 Мбайт (7%)
Выравнивание : Соединение по промежуткам
Продолжительность промежутка : 26 мс. (0,65 видеокадр)
Библиотека кодирования : LAME3.98.4
Внимание! Раздача ведётся путём добавления новых выпусков; при каждом добавлении создаётся новый торрент. Чтобы начать докачку нового выпуска, пользователям необходимо сделать следующее:
1) остановить скачивание,
2) удалить старый торрент у себя из клиента (старые выпуски удалять не надо),
3) скачать новый торрент и запустить его у себя в клиенте вместо старого, при этом указать клиенту путь в старую папку куда и должно происходить скачивание новых выпусков.
Ваш клиент при этом должен произвести хеширование (проверку) старой папки (если не производит сам - помогите ему сделать это), и будет докачивать только те выпуски которых у вас ещё нет. Старые выпуски при этом не удаляются, а продолжают раздаваться!
Если вы уже удалили старые выпуски, то предотвратить повторную закачку старых можно, отжав галочку в соответствующих местах при запуске нового торрента.
Скриншоты:






Добавлен 4 выпуск от 01.10.2013


Время раздачи: До первых скачавших
[NNM-Club.me]_Millioner. Zhizn` snachala.torrent
 Торрент: Бронзовая раздача  Зарегистрирован
 


Зарегистрируйтесь и скачайте торрент!
 Зарегистрирован:   03 Окт 2013 20:30:12
 Размер:   4,14 GB  (
 Рейтинг:   4,1 (Голосов: 17)
 Поблагодарили:   48
 Проверка:   Оформление проверено модератором 03 Окт 2013 22:04:38
Как cкачать  ·  Как раздать  ·  Правильно оформить  ·  Поднять ратио!  

_________________


Последний раз редактировалось: birtasu (03 Окт 2013 20:30:07), всего редактировалось 1 раз
vinka


Стаж: 2 года 11 мес.
Сообщений: 111
Ratio: 207,959
Раздал: 13,38 TB
100%
Откуда: Dnepr
ukraine.gif

Сообщение 27 Сен 2013 04:53:38  Заголовок сообщения: Ответить с цитатой

Рекомендую посмотреть. Очень поучительно.

birtasu, давайте 4-ю часть))
birtasu ®


Стаж: 3 года 4 мес.
Сообщений: 304
Ratio: 63,783
Раздал: 2,666 TB
Поблагодарили: 6480
100%
Откуда: Тернополь
ukraine.gif

Сообщение 27 Сен 2013 12:09:33  Заголовок сообщения: Ответить с цитатой

vinka писал(а): Перейти к сообщению
Рекомендую посмотреть. Очень поучительно.

birtasu, давайте 4-ю часть))

Дам. Новый выпуск выходит каждый вторник, поэтому в среду будет здесь))

_________________
birtasu ®


Стаж: 3 года 4 мес.
Сообщений: 304
Ratio: 63,783
Раздал: 2,666 TB
Поблагодарили: 6480
100%
Откуда: Тернополь
ukraine.gif

Сообщение 27 Сен 2013 18:47:58  Заголовок сообщения: Ответить с цитатой

Кто скачал, подпишитесь пожалуйста на обновление раздачи

_________________
birtasu ®


Стаж: 3 года 4 мес.
Сообщений: 304
Ratio: 63,783
Раздал: 2,666 TB
Поблагодарили: 6480
100%
Откуда: Тернополь
ukraine.gif

Сообщение 03 Окт 2013 20:32:03  Заголовок сообщения: Ответить с цитатой

ТОРРЕНТ ОБНОВЛЁН
ДОБАВЛЕН 4 ВЫПУСК

Оксана Калетник

Леди и народный депутат, икона стиля политического бомонда, владеет 35-ю миллионами долларов, находится на 24-й строчке рейтинга "100 самых влиятельных женщин Украины".

_________________
Chand​lerBi​ng​


Стаж: 3 года 10 мес.
Сообщений: 64
Ratio: 10,315
0.15%
ukraine.gif

Сообщение 05 Окт 2013 20:49:22  Заголовок сообщения: Ответить с цитатой

Хорошая идея, но это постановка.
Djzevel

Стаж: 4 года 7 мес.
Сообщений: 54
Ratio: 1,132
8.9%
spain.gif

Сообщение 09 Окт 2013 21:15:28  Заголовок сообщения: Ответить с цитатой

Правды то только 40%

_________________
Жизнь отнимает у людей слишком много времени. /С. Лец/
гнета

Стаж: 3 года 9 мес.
Сообщений: 46
Ratio: 2,163
Раздал: 954 GB
85.75%
Откуда: Луганск
ukraine.gif

Сообщение 14 Окт 2013 18:42:41  Заголовок сообщения: Ответить с цитатой

когда и будет ли продолжение?

_________________
Нет вещи, которую нельзя было бы улучшить
birtasu ®


Стаж: 3 года 4 мес.
Сообщений: 304
Ratio: 63,783
Раздал: 2,666 TB
Поблагодарили: 6480
100%
Откуда: Тернополь
ukraine.gif

Сообщение 15 Окт 2013 00:44:09  Заголовок сообщения: Ответить с цитатой

Незнаю, сейчас новые выпуски не выходят

_________________
Показать сообщения:   
Начать новую тему   Ответить на тему    Торрент-трекер NNM-Club -> Документалистика и Телепередачи -> Телешоу Часовой пояс: GMT + 4
Страница 1 из 1