Интеллигентный торрент-трекер

Нас вместе: 3 655 805 | Новости торрент-трекера | Как тут скачивать? | Как раздавать торренты? | Правила оформления

Вечерний Ургант. Сезон №4. Выпуск №18 (2013.09.25) HDTVRip


 
 
RSS
Начать новую тему   Ответить на тему    Торрент-трекер NNM-Club -> Документалистика и Телепередачи -> Телешоу
Предыдущая тема :: Следующая тема  
Автор Сообщение
svlesin ®
Куратор Документалистики/TV
RG Releasers
 


Стаж: 4 года 8 месяцев
Сообщений: 20933
Ratio: 418,308
Поблагодарили: 1418181
100%
logo.gif

Сообщение 26 Сен 2013 06:49:00  Заголовок сообщения: Вечерний Ургант. Сезон №4. Выпуск №18 (2013.09.25) HDTVRip Ответить с цитатой

Вечерний Ургант. Сезон №4. Выпуск №18 (2013.09.25) HDTVRip
Режиссер / Телекомпания: Первый канал
Русское название: Вечерний Ургант
Год выпуска: 2013
Жанр: ТВ-Шоу

Описание:
Каждый вечер с понедельника по четверг за полчаса до полуночи Иван Ургант провожает этот день вместе с вами. С хорошим настроением, хорошей музыкой и теми людьми, которые ему интересны. "Вечерний Ургант" с понедельника по четверг

Ведущий: Иван Ургант и Александр Гудков

Гости: Татьяна Навка, Артем Михалков, Дискотека Авария и "ФРУКТЫ"

Продолжительность: ~ 00:25:58

Видеокодек: XviD
Битрейт видео: ~1650 kb/s
Размер кадра: 720 x 400
Качество видео: HDTVRip
Аудиокодек: MP3, 2ch.
Битрейт аудио: 192 kb/s
Формат : AVI
Формат/Информация : Audio Video Interleave
Размер файла : 347 Мбайт
Продолжительность : 26 м.
Общий поток : 1851 Кбит/сек
Программа кодирования : VirtualDubMod 1.5.10.3 (build 2550/release)
Библиотека кодирования : VirtualDubMod build 2550/release

Видео
Идентификатор : 0
Формат : MPEG-4 Visual
Профиль формата : Advanced Simple@L5
Параметр BVOP формата : 2
Параметр QPel формата : Нет
Параметр GMC формата : Без точки перехода
Параметр матрицы формата : Default (H.263)
Режим смешивания : Сжатый битовый поток
Идентификатор кодека : XVID
Идентификатор кодека/Подсказка : XviD
Продолжительность : 26 м.
Битрейт : 1650 Кбит/сек
Ширина : 720 пикселей
Высота : 400 пикселей
Соотношение сторон : 16:9
Частота кадров : 25,000 кадров/сек
Цветовое пространство : YUV
Субдискретизация насыщенности : 4:2:0
Битовая глубина : 8 бит
Тип развёртки : Прогрессивная
Метод сжатия : С потерями
Бит/(Пиксели*Кадры) : 0.229
Размер потока : 309 Мбайт (89%)
Библиотека кодирования : XviD 1.2.1 (UTC 2008-12-04)

Аудио
Идентификатор : 1
Формат : MPEG Audio
Версия формата : Version 1
Профиль формата : Layer 3
Идентификатор кодека : 55
Идентификатор кодека/Подсказка : MP3
Продолжительность : 26 м.
Вид битрейта : Постоянный
Битрейт : 192 Кбит/сек
Каналы : 2 канала
Частота : 48,0 КГц
Метод сжатия : С потерями
Размер потока : 35,9 Мбайт (10%)
Выравнивание : Соединение по промежуткам
Продолжительность промежутка : 40 мс. (1,00 видеокадр)
Время предзагрузки промежутка : 504 мс.
Библиотека кодирования : LAME3.99r
Настройки программы : -m s -V 4 -q 2 -lowpass 18.6 -b 192
Скриншоты:
Время раздачи: 24/7. До первых 5 скачавших.
Rip by Shuriman
Вечерний Ургант на NoNaMe Club
[NNM-Club.me]_Vecherniy Urgant. Sezon 4. Vyipusk 18 (2013.09.25).avi.torrent
 Торрент:   Зарегистрирован
 
Примагнититься

Зарегистрируйтесь и скачайте торрент!
 Зарегистрирован:   26 Сен 2013 06:49:00
 Размер:   344 MB  (
 Рейтинг:   2,7 (Голосов: 28)
 Поблагодарили:   60
 Проверка:   Оформление проверено модератором 26 Сен 2013 06:49:21
Как cкачать  ·  Как раздать  ·  Правильно оформить  ·  Поднять ратио!  

_________________
Исправил релиз - напиши с ссылкой на него в теле письма. Как правильно написать письмо Модератору!!! Мои Релизы..
deev91

Стаж: 3 года 7 месяцев
Сообщений: 17
Ratio: 2,495
1.19%

Сообщение 26 Сен 2013 06:56:54  Заголовок сообщения: Ответить с цитатой

Оперативно. Да здравствуют часовые пояса)
boytsovman

Стаж: 2 года 2 месяцa
Сообщений: 7
Ratio: 0,395
0.24%

Сообщение 26 Сен 2013 10:03:42  Заголовок сообщения: Ответить с цитатой

неужели кто-то смотрит этого надоевшего мальчика, говорящего ни о чём, типичный представитель дибильного первого канала.
Показать сообщения:   
Начать новую тему   Ответить на тему    Торрент-трекер NNM-Club -> Документалистика и Телепередачи -> Телешоу Часовой пояс: GMT + 4
Страница 1 из 1