Интеллигентный торрент-трекер
Нас вместе: 3 810 687 | Новости торрент-трекера | Как тут скачивать? | Как раздавать торренты? | Правила оформления

Скачать бесплатно торрент ТВ Усадьба. Огородные вредители. Яблоневый цветоед (2012) [SATRip] torrent download


 
 
RSS
Начать новую тему   Ответить на тему    Торрент-трекер NNM-Club -> Обучающие видеоматериалы -> Другие
Предыдущая тема :: Следующая тема 
Автор Сообщение
svlesin ®
Куратор Документалистики/TV
RG Releasers
 
Стаж: 4 года 10 мес.
Сообщений: 21917
Ratio: 433,267
Поблагодарили: 1514104
100%
Сообщение 21 Сен 2013 21:38:10  Заголовок сообщения: ТВ Усадьба. Огородные вредители. Яблоневый цветоед (2012) [SATRip] Ответить с цитатой

ТВ Усадьба. Огородные вредители. Яблоневый цветоед (2012) [SATRip]
Режиссер / Телекомпания: ТВ Усадьба

Русское название: ТВ Усадьба. Огородные вредители
Год выпуска: 2012
Жанр: Документальный, приусадебное хозяйство, обучающий, сад, огород
Выпущено: Россия, ЗАО «Телекомпания «Стрим»

Описание:
Передача рассказывает о том, какие опасности подстерегают сад, огород или весь дачный участок, если вовремя не подумать о том, как защитить все это от вредителей - тли, клопов, улиток и других вредителей.

Режиссёр: Глеб Данильцев

Продолжительность: ~ 00:25:48

Видеокодек: XVID
Битрейт видео: ~1500 kb/s
Размер кадра: 704 x 528
Качество видео: SATRip
Аудиокодек: MP3, 2ch.
Битрейт аудио: 128 kb/s
Формат : AVI
Формат/Информация : Audio Video Interleave
Размер файла : 302 Мбайт
Продолжительность : 25 м.
Общий поток : 1638 Кбит/сек
Программа кодирования : VirtualDubMod 1.5.10.3 | www.virtualdub-fr.org || (build 2550/release)
Библиотека кодирования : VirtualDubMod build 2550/release

Видео
Идентификатор : 0
Формат : MPEG-4 Visual
Профиль формата : Advanced Simple@L5
Параметр BVOP формата : 1
Параметр QPel формата : Нет
Параметр GMC формата : Без точки перехода
Параметр матрицы формата : Default (H.263)
Идентификатор кодека : XVID
Идентификатор кодека/Подсказка : XviD
Продолжительность : 25 м.
Битрейт : 1500 Кбит/сек
Ширина : 704 пикселя
Высота : 528 пикселей
Соотношение сторон : 4:3
Частота кадров : 25,000 кадров/сек
Цветовое пространство : YUV
Субдискретизация насыщенности : 4:2:0
Битовая глубина : 8 бит
Тип развёртки : Прогрессивная
Метод сжатия : С потерями
Бит/(Пиксели*Кадры) : 0.161
Размер потока : 277 Мбайт (92%)
Библиотека кодирования : XviD 1.2.1 (UTC 2008-12-04)

Аудио
Идентификатор : 1
Формат : MPEG Audio
Версия формата : Version 1
Профиль формата : Layer 3
Идентификатор кодека : 55
Идентификатор кодека/Подсказка : MP3
Продолжительность : 25 м.
Вид битрейта : Постоянный
Битрейт : 128 Кбит/сек
Каналы : 2 канала
Частота : 48,0 КГц
Метод сжатия : С потерями
Размер потока : 23,6 Мбайт (8%)
Выравнивание : Соединение по промежуткам
Продолжительность промежутка : 40 мс. (1,00 видеокадр)
Время предзагрузки промежутка : 504 мс.
Библиотека кодирования : LAME3.98r
Настройки программы : -m s -V 4 -q 2 -lowpass 17 -b 128
Скриншоты:
Время раздачи: 24/7. До первых 5 скачавших.
Rip by vitaser
ТВ Усадьба. Огородные вредители на NoNaMe Club
[NNM-Club.me]_TV Usad'ba. Ogorodnyie vrediteli. YAblonevyiy tsvetoed (2012).avi.torrent
 Торрент:   Зарегистрирован
 
Примагнититься

Зарегистрируйтесь и скачайте торрент!
 Зарегистрирован:   21 Сен 2013 21:38:11
 Размер:   302 MB  (
 Рейтинг:   4,7 (Голосов: 19)
 Поблагодарили:   85
 Проверка:   Оформление проверено модератором 22 Сен 2013 04:17:26
Как cкачать  ·  Как раздать  ·  Правильно оформить  ·  Поднять ратио!  

_________________
Исправил релиз - напиши с ссылкой на него в теле письма. Как правильно написать письмо Модератору!!! Мои Релизы..
alinausa
Стаж: 4 года 10 мес.
Сообщений: 53
Ratio: 3,622
4.59%
Откуда: usa
usa.gif
Сообщение 23 Сен 2013 00:42:27  Заголовок сообщения: Ответить с цитатой

svlesin
ТВ Усадьба. Огородные вредители. Улитки ?
Показать сообщения:   
Начать новую тему   Ответить на тему    Торрент-трекер NNM-Club -> Обучающие видеоматериалы -> Другие Часовой пояс: GMT + 4
Страница 1 из 1