Интеллигентный торрент-трекер
canvas not supported
Нас вместе: 4 265 818

Exact Audio Copy - пошаговая инструкция (на примере последней версии EAC)


Страницы:  1, 2, 3, 4, 5  След. 
 
RSS
Начать новую тему   Ответить на тему    Торрент-трекер NNM-Club -> Форум Музыка -> Помощь по разделу Музыка
Автор Сообщение
Pashketan ®
Куратор Музыки
Стаж: 7 лет 3 мес.
Сообщений: 6976
Ratio: 18,099
Поблагодарили: 124065
100%
nnm-club.gif
Exact Audio Copy (EAC) - пошаговая инструкция
настройки программы для снятия музыкальных данных с максимальной точностью

1. Скачайте и установите последнюю версию EAC со страницы загрузки программы. Exact Audio Copy (последняя версия)
Для работы EAC требуется проинсталлированная в Вашей системе Microsoft .NET Frameworks 2.0 или выше. Если у Вас она не инсталлирована, скачайте и установите её до установки ЕАС. Скачать Microsoft .NET Framework 4 (веб-установщик).
Во время установки Вы увидите окно выбора компонентов программы, в котором Вы можете отключить ненужные Вам элементы и включить необходимые:


Для заполнения тэгов Вам будет необходим минимум один поставщик метаданных. В поставке ЕАС их предлагается три:
freedb Metedata Plugin - основной поставщик метаданных, помимо стандартной информации о диске имеет встроенные функции поиска картинок и текстов песен.
GD3 Metedata Plugin - комерческая база метаданных, за пользование которой нужно платить абонентскую плату.
CTDB Plugin - подключает к поиску информации о диске дополнительную бесплатную базу метаданных, производит дополнительную проверку рипа по CUETools DB, функциями поиска текстов и картинок не обладает.

Также предлагаются следующие дополнительные компоненты:
CDRDAO - может понадобиться, если Вы собираетесь использовать ЕАС и для записи дисков.
FLAC - консольный кодировщик для упаковки рипов в одноимённый формат.
AccurateRip - функция проверки рипа по базе AccurateRip.
2. При первом запуске программа предложит выполнить макрос настройки - откажитесь.
Примечание. Если Вы столкнулись с проблемами в последней версии EAC, рекомендуется скачать и установить какую-либо из предыдущих версий, например 0.99 prebeta 5.
Примите во внимание, что название некоторых опций настроек в старых версиях ЕАС могут не соответствовать инструкции или вообще отсутствовать.
После открытия главного окна программы нажмите F9 и выставьте в указанных вкладках все "галочки" и переключатели в полное соответствие с представленными скриншотами:


Примечание. Если Вам нужны англоязычные логи извлечения, включите опцию, обведенную на скриншоте синим прямоугольником.

Внимание! Если по окончании снятия рипа файл отчёта не генерируется, и программа выдаёт ошибку, выключите опцию добавления в отчет контрольной суммы. Реализация данной функции на Вашем компьютере аппаратно невозможна.
Внимание! Еслы Вы хотите сохранить информацию о кодах UPC/ISRC, и Ваш привод поддерживает функцию их считывания, можете использовать эту опцию. Однако следует помнить, что при снятии рипа с дисков, выпущенных до 1996-го года (и у некоторых современных) значения кодов могут быть неверными или нулевыми. Сохранение таких кодов в индексной карте может привести к неправильной работе записывающих программ. Опцию считывания кодов UPC/ISRC для подобных дисков рекомендуется отключать.

Внимание! Если Вас интересуют только полные и точные лосслесс рипы, никогда ничего не включайте на вкладке "Нормализация" и вообще забудьте о её существовании.

Это окно не будет пустым только в том случае, если во время установки Вы выбрали компонент CTDB Plugin.
Включите этот компонент, если хотите использовать плагин для дополнительной проверки рипа по базе CUETools DB и отправки данных о рипе в эту базу, с генерацией соответствующей записи в логе извлечения.
Внимание! Если Вы планируете использовать данный плагин только в качестве дополнительного поставщика метаданных, включать его на этой вкладке не нужно.

Содержимое остальных вкладок, не представленных на скриншотах, на на порядок и качество извлечения аудиоданных не влияет.
3. Закройте программу и запустите снова для того, чтобы все настройки вступили в силу.
В ниспадающем списке приводов, расположенном под главным меню программы, должен появиться Ваш CD привод (все приводы, если у Вас их несколько). Если привод определился, можно переходить к его настройке - пункту 4. Если этого по какой-то причине не произошло, что бывает в крайне редких случаях, нужно установить внешний интерфейс ASPI.
1. Скачайте интерфейсную библиотеку по адресу ftp://ftp6.ahead.de/wnaspi32.dll и поместите её в корневую папку установки ЕАС.
2. Нажмите F9, выберите вкладку Интерфейс и установите переключатель как указано на скриншоте.

3. Сохраните настройки, выйдите из программы и снова запустите её, чтобы настройки вступили в силу.
4. Нажмите F10 и выполните настройки текущего привода. Если у Вас несколько приводов, настройки нужно будет повторить для каждого из них.
Внимание! Настройки выделенные красными прямоугольниками следует соблюдать неукоснительно.



Внимание! В поле обозначенное красным прямоугольником нужно вписать правильное значение коррекции смещения для выбранного привода.
Это значение находится по таблице базы AccurateRip - http://www.accuraterip.com/driveoffsets.htm. При поиске этого значения используйте полное наименование модели привода, вплоть до последней буквы. Если Вашего привода нет в таблице, то определить его смещение можно по ключевому диску при настройке ЕАС для работы с базой AccurateRip, как указано в пункте 7 инструкции.
Примечание. Используйте опцию выделенную синим прямоугольником только если Вы на 100% уверены, что Ваш привод поддерживает чтение обоих экстраобластей - Lead-In и Lead-Out. Неправильное использование опции может привести к ошибкам извлечения.

Внимание! Если ЕАС не сможет самостоятельно определить команду чтения, что бывает крайне редко, попробуйте установить команду чтения вручную, например, как указано на скриншоте:

Но лучший выход в таком случае - сменить привод.
5. Поскольку раздача несжатых образов на трекере запрещена, нажмите F11, чтобы настроить параметры сжатия Вашего рипа.

1. В списке Схемы передачи параметров выбираете "Пользовательский кодировщик".
2. В поле обозначенное зелёным прямоугольником вписываете расширение файла используемого кодировщика.
3. Нажимаете кнопку "Обзор" и указываете путь к исполняемому файлу кодировщика (находите исполняемый файл в открывшемся окне проводника).
4. В поле обозначенное синим прямоугольником вписываете дополнительные параметры командной строки кодировщика.

Заполняемые данные для некоторых лосслесс кодировщиков:
Входит в поставку ЕАС, находится в подпапке "Flac" установки программы.
Последнюю версию можно скачать отсюда - http://flac.sourceforge.net/download.html

Расширение файла: .flac

Исполняемый файл: flac.exe

Необходимые параметры командной строки: -V -8 %source%

Расширенные параметры командной строки (рекомендуется):
Код: выделить все
 -8 -V -T "TITLE=%title%" -T "ARTIST=%artist%" -T "ALBUMARTIST=%albumartist%" -T "ALBUM=%albumtitle%" -T "DATE=%year%" -T "TRACKNUMBER=%tracknr%" -T "TRACKTOTAL=%numtracks%" -T "GENRE=%genre%" -T "COMMENT=%comment%" -T "PERFORMER=%albuminterpret%" -T "COMPOSER=%composer%" %source% -o %dest%


-0...-8 степень сжатия

Возможны проблемы аппаратного декодирования для файлов закодированных со степенью сжатия выше 8-ми. Для полной совместимости рекомендуется использовать только значения 0-8.
Скачивают исполняемые файлы кодировщика отсюда - http://www.wavpack.com/downloads.html

Расширение файла: .wv

Исполняемый файл: wavpack.exe

Необходимые параметры командной строки: -hm %source% %dest%

Расширенные параметры командной строки (рекомендуется): -hm -w "Year=%year%" -w "Genre=%genre%" %source% %dest%
Скачивают установщик отсюда - http://www.monkeysaudio.com/download.html

Расширение файла: .ape

Исполняемый файл: MAC.exe

Параметры командной строки: %source% %dest% -c3000
Внимание! В предыдущих версиях ЕАС на вкладке Смещение параметров сжатия была опция "Смещение сжатия". В настоящей версии она отсутствует. Если Вы настраиваете старую версию ЕАС, ни в коем случае не используйте эту опцию.
6. Для того, чтобы использовать функцию автозаполнения тэгов и закачки мультимедия, нажмите F12 и настройте взаимодействие ЕАС с интернет-базами:

Внимание! Следует внести свой e-mail. Если это поле останется незаполненным, Вы не сможете пользоваться функцией поиска информации о диске для автозаполнения тэгов.

Перебирая поставщиков метаданных в поле выбора, Вы можете настроить дополнительные параметры для каждого из них, если таковые имеются. Да установки дополнительных параметров нажмите кнопку на панели.

Дополнительные параметры freedb:

Здесь Вы можете настроить или отключить функции поиска картинок и текстов песен.

Дополнительные параметры CUETools DB:

Здесь настраивается глубина поиска информации.
7. Крайне полезной функцией ЕАС является возможность проверки рипов по базе AccurateRip. По умолчанию эта функция не активна (строка использования функции серого цвета), чтобы активизировать её выполните следующие действия:
Для активации этой функции в ЕАС необходимо наличие так называемого ключевого диска (Key Disk). Как только диск, который по мнению ЕАС может являться ключевым, попадает в привод, ЕАС открывает окно приглашения к конфигурированию

Нажимаете кнопку "Configure" и ждёте результат.

Если диск не является ключевым, по истечении некоторого времени Вы увидете окно

Это значит, что попытка не удалась и нужно пробовать следующий диск.

Если информации о Вашем приводе нет в базе AccurateRip, в лоток привода вставлена лицензионная, пиратская копия оригинального диска, или его копия, записанная на CD-R, то ЕАС попросит вставить ещё несколько (до 3-х) дисков, для определения точного смещения, и Вы увидите окно

Внимание! Используйте для конфигурирования только оригинальные диски.

Когда же Вы увидите такое окно

то вставленный диск является ключевым и ЕАС сконфигурирована для работы с базой AccurateRip.

После активации функции проверки, вкладка "Смещение и скорость" в настройках привода будет выглядеть следующим образом

Сводка проверки Вашего рипа по базе AccurateRip будет автоматически добавляться в отчёт снятия.
Настройка ЕАС завершена.

Снятие точного рипа в формате image+.cue
1. Вставьте диск в CD-привод (например Robbie Williams - Hit Collection 2000)
2. Выполните (проверьте) заполнение тэгов для индексной карты CUE
Если на диске присутствует информация в виде CD-текста, тэги Название CD, Артист и Названия треков заполнятся автоматически. Тэги Год издания и Жанр в этом случае нужно будет заполнить вручную. Если на диске нет CD-текста, будет выполнена попытка автоматической загрузки тэгов от интернет-поставщика метаданных.
Если Вас по какой либо причине не устраивает информация из CD-текста диска, или Вы хотите загрузить дополнительные данные, процедуру автозаполнения тэгов по информации от интернет-поставщиков метаданных можно вызвать вручную, нажав кнопку находящуюся на панели управления под списком выбора дисковода.
При этом на самой кнопке будет присутствовать логотип текущего поставщика метаданных (выбранного последний раз).
Если Вас этот поставщик не устраивает или не может предоставить данные, вы можете сменить его нажав на чёрный треугольник справа от кнопки.


Для вызова процедуры автозаполнения тэгов от текущего поставщика метаданных, можно также воспользоваться меню База данных->получить информацию о CD из->сетевой базы поставщика метаданных, или комбинацией клавиш Alt+G.

Если так случилось, что информации о Вашем диске и в интернет-базах ещё нет - такое бывает со "свежими" дисками - информацию для тэгов нужно заполнить вручную.
Если это альбом одного исполнителя и он указан в поле Артист для всего альбома, то поля Исполнитель для каждого трека заполнять не надо - они заполнятся автоматически.

Заполняйте поля Исполнитель для каждого трека, только если на диске сборник разных исполнителей. При этом в поле Артист альбома желательно указать "Сборник" ("Компиляция") или "Трибьют-альбом" для русскоязычных альбомов, в зависимости от типа конкретного сборника, или "Various Artist" ("Compilation") или "Tribute", для англоязычных альбомов соответственно.

Будьте внимательны! Не все поставщики метаданных заполняют автоматически все необходимые поля тэгов. В этом случае, Вам также необходимо заполнить недостающие поля вручную.
3. Выполните команду меню Действия->Протестировать и скопировать образ, создав индексную карту (Cue Sheet)->в сжатом виде..., как показано на рисунке
В открывшемся окне проводника выберите папку для сохранения рипа и нажмите OK.

Внимание! Для снятия рипа настоятельно рекомендуется использовать команду Протестировать и скопировать.

4. В процессе снятия рипа Вы будете наблюдать окно извлечения аудиоданных. По завершению процедуры снятия окно примет такой вид
Нажмите кнопку ОК.

Снятие рипа завершено.

Смотрим полученный лог -
Код: выделить все
Exact Audio Copy V1.0 beta 3 from 29. August 2011

EAC extraction logfile from 16. September 2013, 17:43

Robbie Williams / Hit Collection 2000

Used drive  : PIONEER DVD-RW  DVR-216D   Adapter: 0  ID: 1

Read mode               : Secure
Utilize accurate stream : Yes
Defeat audio cache      : Yes
Make use of C2 pointers : No

Read offset correction                      : 96
Overread into Lead-In and Lead-Out          : No
Fill up missing offset samples with silence : Yes
Delete leading and trailing silent blocks   : No
Null samples used in CRC calculations       : Yes
Used interface                              : Native Win32 interface for Win NT & 2000

Used output format              : User Defined Encoder
Selected bitrate                : 768 kBit/s
Quality                         : High
Add ID3 tag                     : No
Command line compressor         : C:\Program Files (x86)\Exact Audio Copy\FLAC\FLAC.EXE
Additional command line options : -6 -V -T "ARTIST=%artist%" -T "TITLE=%title%" -T "ALBUM=%albumtitle%" -T "DATE=%year%" -T "TRACKNUMBER=%tracknr%" -T "GENRE=%genre%" -T "COMMENT=%comment%" -T "BAND=%albuminterpret%" -T "ALBUMARTIST=%albuminterpret%" -T "COMPOSER=%composer%" %haslyrics%--tag-from-file=LYRICS="%lyricsfile%"%haslyrics% -T "DISCNUMBER=%cdnumber%" -T "TOTALDISCS=%totalcds%" -T "TOTALTRACKS=%numtracks%" %hascover%--picture="%coverfile%"%hascover% %source% -o %dest%

TOC of the extracted CD

     Track |   Start  |  Length  | Start sector | End sector
    ---------------------------------------------------------
        1  |  0:00.00 |  4:22.46 |         0    |    19695
        2  |  4:22.46 |  4:35.47 |     19696    |    40367
        3  |  8:58.18 |  3:36.29 |     40368    |    56596
        4  | 12:34.47 |  5:17.25 |     56597    |    80396
        5  | 17:51.72 |  4:43.55 |     80397    |   101676
        6  | 22:35.52 |  4:30.72 |    101677    |   121998
        7  | 27:06.49 |  4:02.67 |    121999    |   140215
        8  | 31:09.41 |  4:16.28 |    140216    |   159443
        9  | 35:25.69 |  3:59.65 |    159444    |   177433
       10  | 39:25.59 |  4:32.56 |    177434    |   197889
       11  | 43:58.40 |  3:39.56 |    197890    |   214370
       12  | 47:38.21 |  3:39.61 |    214371    |   230856
       13  | 51:18.07 |  4:09.24 |    230857    |   249555
       14  | 55:27.31 |  5:16.09 |    249556    |   273264
       15  | 60:43.40 |  4:23.14 |    273265    |   293003
       16  | 65:06.54 |  3:13.41 |    293004    |   307519
       17  | 68:20.20 |  3:45.10 |    307520    |   324404
       18  | 72:05.30 |  3:17.02 |    324405    |   339181
       19  | 75:22.32 |  3:29.32 |    339182    |   354888

Range status and errors

Selected range

     Filename H:\Robbie Williams - Hit Collection 2000.wav

     Peak level 100.0 %
     Extraction speed 4.2 X
     Range quality 99.9 %
     Test CRC 40F4CAE6
     Copy CRC 40F4CAE6
     Copy OK

No errors occurred

AccurateRip summary

Track  1  accurately ripped (confidence 1)  [C694F124]  (AR v2)
Track  2  accurately ripped (confidence 1)  [A15E6B3B]  (AR v2)
Track  3  accurately ripped (confidence 1)  [5DFFF983]  (AR v2)
Track  4  accurately ripped (confidence 1)  [D650FFF1]  (AR v2)
Track  5  accurately ripped (confidence 1)  [21C03106]  (AR v2)
Track  6  accurately ripped (confidence 1)  [270511C7]  (AR v2)
Track  7  accurately ripped (confidence 1)  [E690C201]  (AR v2)
Track  8  accurately ripped (confidence 1)  [2E1AC1E3]  (AR v2)
Track  9  accurately ripped (confidence 1)  [E6A1B91F]  (AR v2)
Track 10  accurately ripped (confidence 1)  [CD406E8D]  (AR v2)
Track 11  accurately ripped (confidence 1)  [BD1847D4]  (AR v2)
Track 12  accurately ripped (confidence 1)  [F8E07CDD]  (AR v2)
Track 13  accurately ripped (confidence 1)  [EE5FB851]  (AR v2)
Track 14  accurately ripped (confidence 1)  [DC2099CA]  (AR v2)
Track 15  accurately ripped (confidence 1)  [4FD75440]  (AR v2)
Track 16  accurately ripped (confidence 1)  [0019C017]  (AR v2)
Track 17  accurately ripped (confidence 1)  [07714936]  (AR v2)
Track 18  accurately ripped (confidence 1)  [566B9C37]  (AR v2)
Track 19  accurately ripped (confidence 1)  [903610E9]  (AR v2)

All tracks accurately ripped

End of status report

---- CUETools DB Plugin V2.1.3

[CTDB TOCID: gt1D.2SiB4B5KjB1q3eECDcLRKE-] found, Submit result: already submitted
[a0aa2ed6] (1/1) Accurately ripped

==== Log checksum 4613A585656E91FDEF59736454817B17F7F9C809071D90E7A14068D1016FF47F ====
Идеальный рип.

Снятие точного потрекового рипа - tracks + .cue
1. Вставьте диск в CD-привод (берём опять Robbie Williams - Hit Collection 2000) При необходимости заполните (исправьте) тэговую информацию о диске.
2. Нажмите F4 (меню Действия -> Определить зазоры).

3. Оцените величину предзазора первого трека:
Если интервал равен ровно 2-м секундам

переходите к пункту 5.
Если интервал больше 2-х секунд
4. Протестируйте зазоры на тишину, для чего нажмите F3 (меню Действия -> Проверить зазоры на тишину).
В появившемся окне тестирования оцените содержимое зазоров. Если в зазоре первого трека тишина 100%

информацию с предзазора снимать не нужно.

Если информация в зазоре отлична от тишины 100%, то В этом случае предлагаем вам снять рип образом, а не потреково!
Список альбомов со скрытыми треками в предзазоре http://en.wikipedia.org/wiki/List_of_albums_with_tracks_hidden_in_the_pregap
5. Установите методику обработки зазоров, выбрав пункт меню Действия -> Добавлять зазор к предыдущему треку (по умолчанию).
Если предзазор первого трека больше 2-х секунд, не содержит тишины и не является скрытым музыкальным треком, а у остальных треков нет зазоров (равны нулю), как показано на рисунке

целесообразно выбрать методику обработки зазоров Добавлять зазор к следующему треку. В этом случае снимать предзазор первого трека отдельно не нужно.
6. Создайте CUE-файл - меню Действия -> Создать индексную карту (CUE Sheet) -> С текущими настройками зазоров.
7. Для снятия потрекового рипа нажмите комбинацию клавиш Shift+F6 (меню Действия -> Протестировать и скопировать выбранные треки -> в сжатом виде). По завершению процедуры снятия рипа нажмите кнопку ОК.
По завершению процедуры снятия окно примет такой вид:
8. Проверьте колонку CRC главного окна ЕАС. Если для всех треков указано "ОК" - контрольные суммы (CRC) проходов тестирования и копирования совпадают.
Процедура снятия потрекового рипа завершена.

Смотрим полученный лог -
Код: выделить все
Exact Audio Copy V1.0 beta 3 from 29. August 2011

EAC extraction logfile from 16. September 2013, 18:57

Robbie Williams / Hit Collection 2000

Used drive  : PIONEER DVD-RW  DVR-216D   Adapter: 0  ID: 1

Read mode               : Secure
Utilize accurate stream : Yes
Defeat audio cache      : Yes
Make use of C2 pointers : No

Read offset correction                      : 96
Overread into Lead-In and Lead-Out          : No
Fill up missing offset samples with silence : Yes
Delete leading and trailing silent blocks   : No
Null samples used in CRC calculations       : Yes
Used interface                              : Native Win32 interface for Win NT & 2000
Gap handling                                : Appended to previous track

Used output format              : User Defined Encoder
Selected bitrate                : 768 kBit/s
Quality                         : High
Add ID3 tag                     : No
Command line compressor         : C:\Program Files (x86)\Exact Audio Copy\FLAC\FLAC.EXE
Additional command line options : -6 -V -T "ARTIST=%artist%" -T "TITLE=%title%" -T "ALBUM=%albumtitle%" -T "DATE=%year%" -T "TRACKNUMBER=%tracknr%" -T "GENRE=%genre%" -T "COMMENT=%comment%" -T "BAND=%albuminterpret%" -T "ALBUMARTIST=%albuminterpret%" -T "COMPOSER=%composer%" %haslyrics%--tag-from-file=LYRICS="%lyricsfile%"%haslyrics% -T "DISCNUMBER=%cdnumber%" -T "TOTALDISCS=%totalcds%" -T "TOTALTRACKS=%numtracks%" %hascover%--picture="%coverfile%"%hascover% %source% -o %dest%

TOC of the extracted CD

     Track |   Start  |  Length  | Start sector | End sector
    ---------------------------------------------------------
        1  |  0:00.00 |  4:22.46 |         0    |    19695
        2  |  4:22.46 |  4:35.47 |     19696    |    40367
        3  |  8:58.18 |  3:36.29 |     40368    |    56596
        4  | 12:34.47 |  5:17.25 |     56597    |    80396
        5  | 17:51.72 |  4:43.55 |     80397    |   101676
        6  | 22:35.52 |  4:30.72 |    101677    |   121998
        7  | 27:06.49 |  4:02.67 |    121999    |   140215
        8  | 31:09.41 |  4:16.28 |    140216    |   159443
        9  | 35:25.69 |  3:59.65 |    159444    |   177433
       10  | 39:25.59 |  4:32.56 |    177434    |   197889
       11  | 43:58.40 |  3:39.56 |    197890    |   214370
       12  | 47:38.21 |  3:39.61 |    214371    |   230856
       13  | 51:18.07 |  4:09.24 |    230857    |   249555
       14  | 55:27.31 |  5:16.09 |    249556    |   273264
       15  | 60:43.40 |  4:23.14 |    273265    |   293003
       16  | 65:06.54 |  3:13.41 |    293004    |   307519
       17  | 68:20.20 |  3:45.10 |    307520    |   324404
       18  | 72:05.30 |  3:17.02 |    324405    |   339181
       19  | 75:22.32 |  3:29.32 |    339182    |   354888

Track  1

     Filename H:\Новая папка\01. Robbie Williams - Rock DJ.wav

     Pre-gap length  0:00:02.00

     Peak level 99.6 %
     Extraction speed 3.4 X
     Track quality 99.9 %
     Test CRC C3E5F196
     Copy CRC C3E5F196
     Accurately ripped (confidence 1)  [C694F124]  (AR v2)
     Copy OK

Track  2

     Filename H:\Новая папка\02. Robbie Williams - Singing for the Lonely.wav

     Pre-gap length  0:00:02.00

     Peak level 97.1 %
     Extraction speed 3.9 X
     Track quality 100.0 %
     Test CRC 4B959183
     Copy CRC 4B959183
     Accurately ripped (confidence 1)  [A15E6B3B]  (AR v2)
     Copy OK

Track  3

     Filename H:\Новая папка\03. Robbie Williams - Man Machine.wav

     Pre-gap length  0:00:02.00

     Peak level 99.9 %
     Extraction speed 3.7 X
     Track quality 100.0 %
     Test CRC EAE0C2F4
     Copy CRC EAE0C2F4
     Accurately ripped (confidence 1)  [5DFFF983]  (AR v2)
     Copy OK

Track  4

     Filename H:\Новая папка\04. Robbie Williams - No Regrets.wav

     Pre-gap length  0:00:02.00

     Peak level 97.1 %
     Extraction speed 4.0 X
     Track quality 100.0 %
     Test CRC 8579BCF8
     Copy CRC 8579BCF8
     Accurately ripped (confidence 1)  [D650FFF1]  (AR v2)
     Copy OK

Track  5

     Filename H:\Новая папка\05. Robbie Williams - Strong.wav

     Pre-gap length  0:00:02.00

     Peak level 91.9 %
     Extraction speed 3.9 X
     Track quality 100.0 %
     Test CRC 7A41BBD5
     Copy CRC 7A41BBD5
     Accurately ripped (confidence 1)  [21C03106]  (AR v2)
     Copy OK

Track  6

     Filename H:\Новая папка\06. Robbie Williams - Angels.wav

     Pre-gap length  0:00:02.00

     Peak level 98.6 %
     Extraction speed 3.9 X
     Track quality 100.0 %
     Test CRC 9896E255
     Copy CRC 9896E255
     Accurately ripped (confidence 1)  [270511C7]  (AR v2)
     Copy OK

Track  7

     Filename H:\Новая папка\07. Robbie Williams - Millennium.wav

     Pre-gap length  0:00:02.00

     Peak level 99.3 %
     Extraction speed 3.8 X
     Track quality 100.0 %
     Test CRC 42FE891F
     Copy CRC 42FE891F
     Accurately ripped (confidence 1)  [E690C201]  (AR v2)
     Copy OK

Track  8

     Filename H:\Новая папка\08. Robbie Williams - Let Me Entertain You.wav

     Pre-gap length  0:00:02.00

     Peak level 99.6 %
     Extraction speed 3.8 X
     Track quality 100.0 %
     Test CRC 15630321
     Copy CRC 15630321
     Accurately ripped (confidence 1)  [2E1AC1E3]  (AR v2)
     Copy OK

Track  9

     Filename H:\Новая папка\09. Robbie Williams - Lazy Days.wav

     Pre-gap length  0:00:02.00

     Peak level 100.0 %
     Extraction speed 3.7 X
     Track quality 100.0 %
     Test CRC C2D4A576
     Copy CRC C2D4A576
     Accurately ripped (confidence 1)  [E6A1B91F]  (AR v2)
     Copy OK

Track 10

     Filename H:\Новая папка\10. Robbie Williams - Karma Killer.wav

     Pre-gap length  0:00:02.00

     Peak level 99.3 %
     Extraction speed 3.9 X
     Track quality 100.0 %
     Test CRC F2549776
     Copy CRC F2549776
     Accurately ripped (confidence 1)  [CD406E8D]  (AR v2)
     Copy OK

Track 11

     Filename H:\Новая папка\11. Robbie Williams - Love Cheat.wav

     Pre-gap length  0:00:02.00

     Peak level 99.6 %
     Extraction speed 3.3 X
     Track quality 99.9 %
     Test CRC 7642E21A
     Copy CRC 7642E21A
     Accurately ripped (confidence 1)  [BD1847D4]  (AR v2)
     Copy OK

Track 12

     Filename H:\Новая папка\12. Robbie Williams - One of God's Better People.wav

     Pre-gap length  0:00:02.00

     Peak level 89.8 %
     Extraction speed 3.7 X
     Track quality 100.0 %
     Test CRC AC9B1CDF
     Copy CRC AC9B1CDF
     Accurately ripped (confidence 1)  [F8E07CDD]  (AR v2)
     Copy OK

Track 13

     Filename H:\Новая папка\13. Robbie Williams - Phoenix From the Flames.wav

     Pre-gap length  0:00:02.00

     Peak level 98.6 %
     Extraction speed 3.3 X
     Track quality 99.9 %
     Test CRC BF263C2D
     Copy CRC BF263C2D
     Accurately ripped (confidence 1)  [EE5FB851]  (AR v2)
     Copy OK

Track 14

     Filename H:\Новая папка\14. Robbie Williams - These Dreams.wav

     Pre-gap length  0:00:02.00

     Peak level 86.5 %
     Extraction speed 3.5 X
     Track quality 99.9 %
     Test CRC 0DE6FDD3
     Copy CRC 0DE6FDD3
     Accurately ripped (confidence 1)  [DC2099CA]  (AR v2)
     Copy OK

Track 15

     Filename H:\Новая папка\15. Robbie Williams - Win Some, Lose Some.wav

     Pre-gap length  0:00:02.00

     Peak level 97.1 %
     Extraction speed 2.3 X
     Track quality 99.8 %
     Test CRC 2471BFE0
     Copy CRC 2471BFE0
     Accurately ripped (confidence 1)  [4FD75440]  (AR v2)
     Copy OK

Track 16

     Filename H:\Новая папка\16. Robbie Williams - Heaven From Here.wav

     Pre-gap length  0:00:02.00

     Peak level 95.1 %
     Extraction speed 3.2 X
     Track quality 99.9 %
     Test CRC A458A89D
     Copy CRC A458A89D
     Accurately ripped (confidence 1)  [0019C017]  (AR v2)
     Copy OK

Track 17

     Filename H:\Новая папка\17. Robbie Williams - Jesus in a Camper Van.wav

     Pre-gap length  0:00:02.00

     Peak level 95.1 %
     Extraction speed 3.8 X
     Track quality 100.0 %
     Test CRC 5B1EF457
     Copy CRC 5B1EF457
     Accurately ripped (confidence 1)  [07714936]  (AR v2)
     Copy OK

Track 18

     Filename H:\Новая папка\18. Robbie Williams - Grace.wav

     Pre-gap length  0:00:02.00

     Peak level 97.1 %
     Extraction speed 3.7 X
     Track quality 100.0 %
     Test CRC BC0AE84A
     Copy CRC BC0AE84A
     Accurately ripped (confidence 1)  [566B9C37]  (AR v2)
     Copy OK

Track 19

     Filename H:\Новая папка\19. Robbie Williams - Are You Gonna My Way.wav

     Pre-gap length  0:00:02.00

     Peak level 99.0 %
     Extraction speed 3.7 X
     Track quality 100.0 %
     Test CRC 6B68582D
     Copy CRC 6B68582D
     Accurately ripped (confidence 1)  [903610E9]  (AR v2)
     Copy OK

All tracks accurately ripped

No errors occurred

End of status report

---- CUETools DB Plugin V2.1.3

[CTDB TOCID: gt1D.2SiB4B5KjB1q3eECDcLRKE-] found, Submit result: already submitted
[a0aa2ed6] (1/1) Accurately ripped

==== Log checksum 4FBF68048FA6C3C3D710755AFC17B9F03BE296FEBAA9EC90A0311C4768B8E590 ====
Идеальный рип.

Спасибо автору инструкции simple.i Редактирование и скриншоты Pashketan


Последний раз редактировалось: Pashketan (15 Фев 2017 09:11:32), всего редактировалось 10 раз(а)
Yon2
Стаж: 5 лет 3 мес.
Сообщений: 144
Раздал: 875 GB
Поблагодарили: 2108
0%
Спасибо за новую инструкцию.
В 5-м пункте на картинке в командной строке вначале стоит -6, а ведь рекомендуется всегда -8 для максимального сжатия... Хотя не важно - внизу же стоит -8.
Pashketan ®
Куратор Музыки
Стаж: 7 лет 3 мес.
Сообщений: 6976
Ratio: 18,099
Поблагодарили: 124065
100%
nnm-club.gif
Yon2 писал(а): Перейти к сообщению
Хотя не важно - внизу же стоит -8.


Всё верно. Для FLAC Необходимые параметры командной строки: -V -8 %source%
Заменил скрин, чтобы никого не путать.

_________________
Исправил релиз - напиши мне в со ссылкой на него.
EAC - пошаговая инструкция Набор модераторов в категории Музыка
Yon2
Стаж: 5 лет 3 мес.
Сообщений: 144
Раздал: 875 GB
Поблагодарили: 2108
0%
Разумеется стоит делать точные рипы, как здесь написано, ведь к этому нет никаких препятствий.

Но согласитесь, что если есть рип уже сделан не совсем с правильными настройками, или вовсе не EAC, а CD-DA Extractor например, то переделывать или перескачивать его в случае появления варианта с "правильными" настройками всё-же какого-то реального объективного резона нет.
Pashketan ®
Куратор Музыки
Стаж: 7 лет 3 мес.
Сообщений: 6976
Ratio: 18,099
Поблагодарили: 124065
100%
nnm-club.gif
Ну тут, как говорится, хозяин барин. Лично я просто не качаю альбомы, где лог снят "неправильно".
Кстати к слову о прогах.
Очень неплохая прожка CUERipper входит в состав CUETools.

Мне кажется её незаслуженно не воспринимают всерьёз. Снимает рип в один клик.
Вот моя раздача - La Bionda - The Collection

Можно сравнить отчёты
Код:
CUERipper v2.1.4 Copyright (C) 2008-12 Grigory Chudov

EAC extraction logfile from 28. September 2013, 10:00

La Bionda / The Collection

Used drive  : PIONEER DVD-RW  DVR-216D   Adapter: 1  ID: 0

Read mode               : Secure
Utilize accurate stream : Yes
Defeat audio cache      : Yes
Make use of C2 pointers : No

Read offset correction                      : 96
Overread into Lead-In and Lead-Out          : No
Fill up missing offset samples with silence : Yes
Delete leading and trailing silent blocks   : No
Null samples used in CRC calculations       : Yes
Used interface                              : Native Win32 interface for Win NT & 2000

Used output format : Internal WAV Routines
Sample format      : 44.100 Hz; 16 Bit; Stereo

TOC of the extracted CD

     Track |   Start  |  Length  | Start sector | End sector
    ---------------------------------------------------------
        1  |  0:01.00 |  3:35.47 |        75    |    16246
        2  |  3:36.47 |  3:27.33 |     16247    |    31804
        3  |  7:04.05 |  3:15.52 |     31805    |    46481
        4  | 10:19.57 |  4:26.18 |     46482    |    66449
        5  | 14:46.00 |  4:03.02 |     66450    |    84676
        6  | 18:49.02 |  5:50.33 |     84677    |   110959
        7  | 24:39.35 |  4:08.45 |    110960    |   129604
        8  | 28:48.05 |  3:56.00 |    129605    |   147304
        9  | 32:44.05 |  4:05.45 |    147305    |   165724
       10  | 36:49.50 |  5:35.35 |    165725    |   190884
       11  | 42:25.10 |  3:39.55 |    190885    |   207364
       12  | 46:04.65 |  4:28.60 |    207365    |   227524
       13  | 50:33.50 |  4:25.27 |    227525    |   247426
       14  | 54:59.02 |  4:14.53 |    247427    |   266529
       15  | 59:13.55 |  3:55.30 |    266530    |   284184

Range status and errors

Selected range

     Filename C:\Users\PASHA\Music\La Bionda\The Collection\La Bionda - The Collection.wav

     Peak level 99.9 %
     Range quality 100.0 %
     Test CRC CC5210E5
     Copy CRC CC5210E5
     Copy OK

No errors occurred

AccurateRip summary

Track  1  not present in database
Track  2  not present in database
Track  3  not present in database
Track  4  not present in database
Track  5  not present in database
Track  6  not present in database
Track  7  not present in database
Track  8  not present in database
Track  9  not present in database
Track 10  not present in database
Track 11  not present in database
Track 12  not present in database
Track 13  not present in database
Track 14  not present in database
Track 15  not present in database

None of the tracks are present in the AccurateRip database

End of status report
Код:
REM DISCID C10ECC0F
PERFORMER "La Bionda"
TITLE "The Collection"
REM DISCNUMBER 1
REM TOTALDISCS 1
REM COMMENT "CUERipper v2.1.4 Copyright (C) 2008-12 Grigory Chudov"
FILE "La Bionda - The Collection.flac" WAVE
  TRACK 01 AUDIO
    PERFORMER "La Bionda"
    TITLE "One For You, One For Me"
    INDEX 00 00:00:00
    INDEX 01 00:01:00
  TRACK 02 AUDIO
    PERFORMER "La Bionda"
    TITLE "There For Me"
    INDEX 00 03:35:12
    INDEX 01 03:36:47
  TRACK 03 AUDIO
    PERFORMER "La Bionda"
    TITLE "I Wanna Be Your Lover"
    INDEX 00 07:02:45
    INDEX 01 07:04:05
  TRACK 04 AUDIO
    PERFORMER "La Bionda"
    TITLE "Bandido"
    INDEX 00 10:18:22
    INDEX 01 10:19:57
  TRACK 05 AUDIO
    PERFORMER "La Bionda"
    TITLE "A Moment Of Sunshine"
    INDEX 00 14:44:40
    INDEX 01 14:46:00
  TRACK 06 AUDIO
    PERFORMER "La Bionda"
    TITLE "Sandstorm"
    INDEX 00 18:47:42
    INDEX 01 18:49:02
  TRACK 07 AUDIO
    PERFORMER "La Bionda"
    TITLE "High Energy"
    INDEX 00 24:38:00
    INDEX 01 24:39:35
  TRACK 08 AUDIO
    PERFORMER "La Bionda"
    TITLE "You're So Fine"
    INDEX 00 28:44:45
    INDEX 01 28:48:05
  TRACK 09 AUDIO
    PERFORMER "La Bionda"
    TITLE "Black And White"
    INDEX 00 32:42:45
    INDEX 01 32:44:05
  TRACK 10 AUDIO
    PERFORMER "La Bionda"
    TITLE "Deserts Of Mars"
    INDEX 00 36:48:15
    INDEX 01 36:49:50
  TRACK 11 AUDIO
    PERFORMER "La Bionda"
    TITLE "Baby Make Love"
    INDEX 00 42:23:50
    INDEX 01 42:25:10
  TRACK 12 AUDIO
    PERFORMER "La Bionda"
    TITLE "Johnie Don't Go Away"
    INDEX 00 46:03:30
    INDEX 01 46:04:65
  TRACK 13 AUDIO
    PERFORMER "La Bionda"
    TITLE "Hey Woman"
    INDEX 00 50:32:15
    INDEX 01 50:33:50
  TRACK 14 AUDIO
    PERFORMER "La Bionda"
    TITLE "Moonlight Palais"
    INDEX 00 54:57:42
    INDEX 01 54:59:02
  TRACK 15 AUDIO
    PERFORMER "La Bionda"
    TITLE "Will She Or Won't She"
    INDEX 00 59:12:20
    INDEX 01 59:13:55
Отчёт один в один. Простейшая в настройках.

_________________
Исправил релиз - напиши мне в со ссылкой на него.
EAC - пошаговая инструкция Набор модераторов в категории Музыка
Yon2
Стаж: 5 лет 3 мес.
Сообщений: 144
Раздал: 875 GB
Поблагодарили: 2108
0%
Цитата:
Ну тут, как говорится, хозяин барин. Лично я просто не качаю альбомы, где лог снят "неправильно".
Понятно, что личные, субъективные принципы могут быть у каждого свои, с этим не поспоришь.
Но можете ли вы привести какие-то объективные аргументы: что всё-таки теряет тот человек, у которого есть рип с так называемыми "неправильными" настройками, по сравнению с человеком, у которого есть рип с "правильными".

Просто я сам спокойно слушаю свои рипы, сделанные CD-DA Extractor, а также несколько "неправильных", сделанных EAC, и не вижу какой-то причины их переделывать. Хотя у меня есть все диски, и если бы был какой-то объективный весомый аргумент переделать рипы с правильными настройками, то я бы их переделал.
posey​donbo​nd​
Стаж: 6 лет 5 мес.
Сообщений: 1836
Ratio: 1922,327
Раздал: 48,93 TB
Поблагодарили: 37865
100%
Откуда: Владимир Конкретно: Доброе
pirates.png
Yon2
Самый весомый и главный аргумент "правильных" настроек - это точность копии, чтоб потом можно было воссоздать диск по подобию оригинала (приводы у всех разные). Остальные просто меркнут перед ним, например такие, как уважение к качающим (если только вы не делаете рип для себя "на послушать", чтоб лишний раз не царапать блинчик).
:да: =)
Pashketan ®
Куратор Музыки
Стаж: 7 лет 3 мес.
Сообщений: 6976
Ratio: 18,099
Поблагодарили: 124065
100%
nnm-club.gif
Когда мы скачиваем рип с "правильными" настройками мы на 100% уверены, что получаем точную копию
оригинального диска.
Т. е. если мы захотим в будущем записать альбом на болванку, то мы будем уверены, что полученный диск ничем не будет отличаться от оригинала.
Вы же читали правила. Что бы раздача получила статус Идеальный рип надо иметь правильный отчёт EAC и наличие всех обложек. Мы с лёгкостью можем создать точную копию оригинала со всеми обложками.
Просто если собирать коллекцию аудио, то конечно лучше выбирать Идеальный рип. А если просто слушать, то качайте что угодно, ведь это цифровой звук, набор цифр, они или есть, или их нет.
Хуже или лучше не зависит от копирования.

_________________
Исправил релиз - напиши мне в со ссылкой на него.
EAC - пошаговая инструкция Набор модераторов в категории Музыка
Yon2
Стаж: 5 лет 3 мес.
Сообщений: 144
Раздал: 875 GB
Поблагодарили: 2108
0%
Цитата:
А если просто слушать, то качайте что угодно, ведь это цифровой звук, набор цифр, они или есть, или их нет.
Хуже или лучше не зависит от копирования.
Спасибо, что разъяснили. Я и правда не понимал, что делать с релизом, кроме того что просто его слушать, поэтому и думал, что неточность снятости рипа кому-то не даёт покоя при прослушивании. Теперь понял, что это нужно для коллекционирования.
Цитата:
если мы захотим в будущем записать альбом на болванку, то мы будем уверены, что полученный диск ничем не будет отличаться от оригинала.
Вы же читали правила. Что бы раздача получила статус Идеальный рип надо иметь правильный отчёт EAC и наличие всех обложек. Мы с лёгкостью можем создать точную копию оригинала со всеми обложками.
То есть вы пишите альбомы на болванки и распечатываете обложки?
Я ведь сам ничем подобным не занимаюсь, поэтому мне и не ясно было, чем мои резизы могли не устраивать. В таком случае вопрос: а не проще ли вместо этого пойти в магазин и купить официальные диски или заказать их? И иметь сам оригинал, а не его копию: ведь хотя-бы точную копию самого диска вы никак не получите, особенно если он какой-нибудь серебристый. Ну и экономическая польза, вклад в звукозапись и производство дисков.
У меня самого оригинальные диски большинства классических релизов есть, но они просто лежат на полке, а слушаю я их только на портативном плеере (до недавнего времени там вся коллекция во флаце помещалась), и меня не беспокоит, насколько там точно снят сам рип, - если слушаю лосслесс, главное, что само аудио беспотерьно.
(Хотя терперь рипы делаю точно, на случай если буду выкладывать.)
Pashketan ®
Куратор Музыки
Стаж: 7 лет 3 мес.
Сообщений: 6976
Ratio: 18,099
Поблагодарили: 124065
100%
nnm-club.gif
Yon2 писал(а): Перейти к сообщению
То есть вы пишите альбомы на болванки и распечатываете обложки?


Да нет, мне это не нужно. Просто при желании это можно легко сделать.

Yon2 писал(а): Перейти к сообщению
Хотя терперь рипы делаю точно, на случай если буду выкладывать.


Ну вот это правильный путь :да:

_________________
Исправил релиз - напиши мне в со ссылкой на него.
EAC - пошаговая инструкция Набор модераторов в категории Музыка
Yon2
Стаж: 5 лет 3 мес.
Сообщений: 144
Раздал: 875 GB
Поблагодарили: 2108
0%
У меня ещё пара вопросов.

Если принять, что при снятии этого же моего рипа ошибок не было, то тогда его можно считать точной копией оригинала, или есть что-то ещё?

Ещё вопрос: что делать если поиск зазоров в eac застревает на определённом треке, и дальше ничего не происходит, пока не нажмёшь отмену.
Pashketan ®
Куратор Музыки
Стаж: 7 лет 3 мес.
Сообщений: 6976
Ratio: 18,099
Поблагодарили: 124065
100%
nnm-club.gif
Yon2 писал(а): Перейти к сообщению
что делать если поиск зазоров в eac застревает на определённом треке, и дальше ничего не происходит, пока не нажмёшь отмену

В этом случае стоит попробовать снять рип образом, поиск зазоров пройдёт в автоматическом режиме.
Yon2 писал(а): Перейти к сообщению
Если принять, что при снятии этого же моего рипа ошибок не было, то тогда его можно считать точной копией оригинала, или есть что-то ещё?

Любое отклонение от рекомендованных параметров при настройке EAC, даже если в отчёте написано - Все треки извлечены точно недопустимо и этот рип не является точной копией исходного диска.

_________________
Исправил релиз - напиши мне в со ссылкой на него.
EAC - пошаговая инструкция Набор модераторов в категории Музыка
Yon2
Стаж: 5 лет 3 мес.
Сообщений: 144
Раздал: 875 GB
Поблагодарили: 2108
0%
Цитата:
Любое отклонение от рекомендованных параметров при настройке EAC, даже если в отчёте написано - Все треки извлечены точно недопустимо и этот рип не является точной копией исходного диска.
Но чем он будет отличаться?
Yon2
Стаж: 5 лет 3 мес.
Сообщений: 144
Раздал: 875 GB
Поблагодарили: 2108
0%
Цитата:
что делать если поиск зазоров в eac застревает на определённом треке, и дальше ничего не происходит, пока не нажмёшь отмену.
Оказывается нужно поменять метод поиска зазоров в настройках дисковода в EAC. Поменял метод поиска с B на A и всё определилось. Истересно, что это - двухдисковое издание и на втором диске зазоры по методу B определились (а на первом диске всё останавливалось на 3-м треке).
Pashketan ®
Куратор Музыки
Стаж: 7 лет 3 мес.
Сообщений: 6976
Ratio: 18,099
Поблагодарили: 124065
100%
nnm-club.gif
Yon2 писал(а): Перейти к сообщению
Оказывается нужно поменять метод поиска зазоров

Оказывается надо настроить прогу по инструкции. Там на скрине и отмечено красным - Метод чтения А.
Внимательно выставьте все параметры настроек и ошибок не должно быть.

_________________
Исправил релиз - напиши мне в со ссылкой на него.
EAC - пошаговая инструкция Набор модераторов в категории Музыка
Показать сообщения:   
Начать новую тему   Ответить на тему    Торрент-трекер NNM-Club -> Форум Музыка -> Помощь по разделу Музыка Часовой пояс: GMT + 3
Страницы:  1, 2, 3, 4, 5  След.
Страница 1 из 5