Классический форум-трекер
canvas not supported
Нас вместе: 4 073 313
Loading...

Умка и «Броневичок» - Концерт в Краснодаре (17 сентября 2005) 2xDVD5


 
 
RSS
Начать новую тему   Ответить на тему    Торрент-трекер NNM-Club -> Архив торрентов -> Архив Музыкального Видео
Автор Сообщение
9a33 ®
Стаж: 9 лет 2 мес.
Сообщений: 1229
Ratio: 18,661
Раздал: 17,21 TB
Поблагодарили: 21881
100%
Откуда: Ейск
ussr.gif
Умка и «Броневичок» - Концерт в Краснодаре (17 сентября 2005) 2xDVD5
Год выпуска: 2005
Жанр: Rock'n'roll, Rhythm&Blues, Psychedelic Rock

Описание фильма:
Умка и Броневик (до июля 2005 — Умка и Броневичок) — рок-группа. Песни Умки (Анны Герасимовой) аранжированы в стиле американо-британского гитарного рока 60—70-х, который варьируется от жёсткого ритм-энд-блюза до психоделии в духе Grateful Dead. Группа выпустила более двух десятков альбомов и много гастролирует в России и за рубежом.

Релиз в раздаче — Акустический концерт Умки и «Броневичка» в клубе «Подвал образцового содержания» (г. Краснодар) 17 сентября 2005 года

Дата выхода DVD релиза: официально не издавался
Дополнительные материалы: отсутствуют
Меню: статичное

Состав:
Боря Канунников — гитара
Игорь Ойстрах — губная гармошка
Миша Трофименко — бас
Боря Марков — ударные
Аня «Умка» Герасимова — голос, гитара

Продолжительность: 00:54:00 + 00:40:54

Качество видео: DVD5
Видеокодек: MPEG-2
Битрейт видео: ~VBR (до 9641 kb/s)
Размер кадра: 720x576 PAL 4:3
Аудиокодек: AC3
Битрейт аудио: 192 kb/s 2/0 (L,R) ch
Скриншоты:
ЧАСТЬ 1 (54:00)
--------------------
Треклист:
01. (настройка)
02. Я была с моим народом
03. Дорога пришла
04. Здесь и сейчас
05. Вся любовь
06. Дожили, мама!
07. Считалка
08. Свобода вышла боком
09. Маленький двойной
10. Уважаемые пассажиры!
11. Низкий старт
12. Не стой под стрелой (мой герой)
13. Junkie
14. Я изменила себе (с тобой)

ЧАСТЬ 2 (40:54)
---------------------

01. Артур
02. Когда... (чужая песня)
03. Белые лошадки
04. От роддома до дурдома
05. Пятая волна
06. Проблема смешного
07. Бензоколонка
08. 600
09. Не волнуйся, мама! (Ничего не будет хорошо)
10. Прощайте!
Title: диск 1
Size: 3.70 Gb ( 3 877 746,00 KBytes ) - DVD-5
Enabled regions: 1, 2, 3, 4, 5, 6, 7, 8

VTS_01 :
Play Length: 00:54:00+{00:00:00}+{00:00:00}+{00:00:00}
Video: PAL 4:3 (720x576) VBR
Audio:
Not specified (Dolby AC3, 2 ch)

* Menus Information *

VIDEO_TS Menu
Video:
PAL 4:3 (720x576) VBR
Language Unit :
Title Menu

VTS_01 Menu
Video:
NTSC 4:3 (720x480) VBR
Auto Pan&Scan, Auto Letterboxed
Language Unit :
Root Menu

Audio #1: AC3, 2/0 (L,R) ch, 192 kbps, Delay 0 mSec

////////////////////////////////////////////////////////

Title: диск 2
Size: 2.80 Gb ( 2 936 568,00 KBytes ) - DVD-5
Enabled regions: 1, 2, 3, 4, 5, 6, 7, 8

VTS_01 :
Play Length: 00:40:54+{00:00:00}+{00:00:00}+{00:00:00}
Video: PAL 4:3 (720x576) VBR
Audio:
Not specified (Dolby AC3, 2 ch)

* Menus Information *

VIDEO_TS Menu
Video:
PAL 4:3 (720x576) VBR
Language Unit :
Title Menu

VTS_01 Menu
Video:
NTSC 4:3 (720x480) VBR
Auto Pan&Scan, Auto Letterboxed
Language Unit :
Root Menu

Audio #1: AC3, 2/0 (L,R) ch, 192 kbps, Delay 0 mSec
Общее
Полное имя : C:\Users\9a33\Desktop\Умка и Броневичок - 2005.09.17 - Краснодар, Подвал\диск 1\VTS_01_3.VOB
Формат : MPEG-PS
Размер файла : 1024 Мбайт
Продолжительность : 14 м.
Режим общего битрейта : Переменный
Общий поток : 9800 Кбит/сек

Видео
Идентификатор : 224 (0xE0)
Формат : MPEG Video
Версия формата : Version 2
Профиль формата : Main@Main
Параметр BVOP формата : Да
Параметр матрицы формата : По умолчанию
Параметр GOP формата : M=3, N=15
Продолжительность : 14 м.
Вид битрейта : Переменный
Битрейт : 9413 Кбит/сек
Максимальный битрейт : 9641 Кбит/сек
Ширина : 720 пикселей
Высота : 576 пикселей
Соотношение сторон : 4:3
Частота кадров : 25,000 кадров/сек
Стандарт вещания : PAL
Цветовое пространство : YUV
Субдискретизация насыщенности : 4:2:0
Битовая глубина : 8 бит
Тип развёртки : Чересстрочная
Порядок развёртки : Нижнее поле первое
Метод сжатия : С потерями
Бит/(Пиксели*Кадры) : 0.908
Временной код первого кадра : 00:29:13:13
Оригинал временного кода : Group of pictures header
Размер потока : 983 Мбайт (96%)

Аудио
Идентификатор : 189 (0xBD)-128 (0x80)
Формат : AC-3
Формат/Информация : Audio Coding 3
Расширение режима : CM (complete main)
Параметр Endianness формата : Big
Режим смешивания : DVD-Video
Продолжительность : 14 м.
Вид битрейта : Постоянный
Битрейт : 192 Кбит/сек
Каналы : 2 канала
Расположение каналов : Front: L R
Частота : 48,0 КГц
Битовая глубина : 16 бит
Метод сжатия : С потерями
Задержка видео : -576 мс.
Размер потока : 20,1 Мбайт (2%)

Меню
Также рекомендую: Ольга Арефьева и Петр Акимов - Концерт в Краснодаре (19 ноября 2005) 2xDVD5

Время раздачи: 24/7 ТОЛЬКО в сентябре 2013
[NNM-Club.me]_Umka i Bronevichok - 2005.09.17 - Krasnodar, Podval.torrent
 Торрент:   Зарегистрирован
 
Зарегистрируйтесь и скачайте торрент!
17,4 KB

Примагнититься
 Зарегистрирован:   09 Сен 2013 21:41:10
 Размер:   6,5 GB  (
 Рейтинг:   4,4 (Голосов: 10)
 Поблагодарили:   25
 Проверка:   Оформление проверено модератором 10 Сен 2013 14:02:27
Как cкачать  ·  Как раздать  ·  Правильно оформить  ·  Поднять ратио!  

_________________
ВСЕ МОИ "КНИЖНО-ГАЗЕТНЫЕ" РАЗДАЧИ - собственноручно отсканированные материалы.
graft55
Стаж: 9 лет 4 мес.
Сообщений: 180
Ratio: 7,786
12.97%
рипчик бы
Топик был перенесен из форума Концерты (DVD) в форум Архив Музыкального Видео

Причина переноса: Раздающего не было месяц или более
Robert Ingil
Показать сообщения:   
Начать новую тему   Ответить на тему    Торрент-трекер NNM-Club -> Архив торрентов -> Архив Музыкального Видео Часовой пояс: GMT + 3
Страница 1 из 1