Интеллигентный торрент-трекер
загрузка...
Нас вместе: 3 850 637 | Новости торрент-трекера | Как тут скачивать? | Как раздавать торренты? | Правила оформления

Скачать бесплатно торрент Wine From Tears - Glad To Be Dead (2013) [FLAC|Lossless]<Melodic Death Metal / Doom Metal> torrent download


 
 
RSS
Начать новую тему   Ответить на тему    Торрент-трекер NNM-Club -> Rock, Alternative, Punk, Metal -> Metal (Lossless)
Предыдущая тема :: Следующая тема 
Автор Сообщение
gatherone ®
RG Музыки
 
Стаж: 2 года 3 мес.
Сообщений: 1024
Ratio: 193,988
Поблагодарили: 20540
8.46%
Сообщение 19 Июл 2013 21:51:37  Заголовок сообщения: Wine From Tears - Glad To Be Dead (2013) [FLAC|Lossless]<Melodic Death Metal / Doom Metal> Ответить с цитатой

Wine From Tears - Glad To Be Dead (2013)
Год: 2013
Жанр: Melodic Death Metal / Doom Metal
Label & Catalog#: BadMoodMan Music - BMM. 061-13
Продолжительность: 00:50:37

Кодек: FLAC
Битрейт: Lossless

Треклист:
01. For Those Who Died Asleep [02:04]
02. Allergic Sun [06:30]
03. What Are You Waiting For [07:02]
04. In Memory Of The Truth [07:21]
05. Let Me In [06:45]
06. Like A Fallen Leaf [07:07]
07. The Light At The End Of The World [10:29]
08. Silence No More [03:15]
Код:

Exact Audio Copy V1.0 beta 3 from 29. August 2011

EAC extraction logfile from 17. July 2013, 20:47

Wine From Tears / Glad To Be Dead

Used drive  : ASUS    DRW-24B3LT   Adapter: 3  ID: 1

Read mode               : Secure
Utilize accurate stream : Yes
Defeat audio cache      : Yes
Make use of C2 pointers : No

Read offset correction                      : 6
Overread into Lead-In and Lead-Out          : No
Fill up missing offset samples with silence : Yes
Delete leading and trailing silent blocks   : No
Null samples used in CRC calculations       : Yes
Used interface                              : Native Win32 interface for Win NT & 2000

Used output format              : User Defined Encoder
Selected bitrate                : 1024 kBit/s
Quality                         : High
Add ID3 tag                     : No
Command line compressor         : C:\Program Files (x86)\Exact Audio Copy\FLAC\FLAC.EXE
Additional command line options : -6 -V -T "ARTIST=%artist%" -T "TITLE=%title%" -T "ALBUM=%albumtitle%" -T "DATE=%year%" -T "TRACKNUMBER=%tracknr%" -T "GENRE=%genre%" -T "COMMENT=%comment%" -T "BAND=%albuminterpret%" -T "ALBUMARTIST=%albuminterpret%" -T "COMPOSER=%composer%" %haslyrics%--tag-from-file=LYRICS="%lyricsfile%"%haslyrics% -T "DISCNUMBER=%cdnumber%" -T "TOTALDISCS=%totalcds%" -T "TOTALTRACKS=%numtracks%" %hascover%--picture="%coverfile%"%hascover% %source% -o %dest%

TOC of the extracted CD

     Track |   Start  |  Length  | Start sector | End sector
    ---------------------------------------------------------
        1  |  0:00.00 |  2:04.42 |         0    |     9341
        2  |  2:04.42 |  6:30.49 |      9342    |    38640
        3  |  8:35.16 |  7:02.50 |     38641    |    70340
        4  | 15:37.66 |  7:21.28 |     70341    |   103443
        5  | 22:59.19 |  6:45.05 |    103444    |   133823
        6  | 29:44.24 |  7:07.10 |    133824    |   165858
        7  | 36:51.34 | 10:29.54 |    165859    |   213087
        8  | 47:21.13 |  3:15.64 |    213088    |   227776

Range status and errors

Selected range

     Filename C:\MY_MUSIC\MMM\Wine From Tears 2013 Glad To Be Dead.wav

     Peak level 100.0 %
     Extraction speed 8.3 X
     Range quality 100.0 %
     Copy CRC 18FFC1B5
     Copy OK

No errors occurred

AccurateRip summary

Track  1  not present in database
Track  2  not present in database
Track  3  not present in database
Track  4  not present in database
Track  5  not present in database
Track  6  not present in database
Track  7  not present in database
Track  8  not present in database

None of the tracks are present in the AccurateRip database

End of status report

==== Log checksum FA049B080690DF1FCB581FC5D9ABD43BAC4EE7D1AB11D699C993B7F0A8EFDAD5 ====
Код:

DON'T MODIFY THIS FILE

-----------------------

PERFORMER: auCDtect Task Manager, ver. 1.6.0 RC1 build 1.6.0.1
Copyright (c) 2008-2010 y-soft. All rights reserved
http://y-soft.org

ANALYZER: auCDtect: CD records authenticity detector, version 0.8.2
Copyright (c) 2004 Oleg Berngardt. All rights reserved.
Copyright (c) 2004 Alexander Djourik. All rights reserved.

FILE: Wine From Tears 2013 Glad To Be Dead.flac
  Size: 382034622 Hash: 713FAB9C60FDFBF0FAF190DD79187A39 Accuracy: -m0
  Conclusion: CDDA 99%
  Signature: 3A83D692D9159F9CC4676D3D1D5BB72CB7C1BF18
Thanks Troll-Santa
Время раздачи: 19.00 - 23.00


Поглощение/вытеснение
Только с согласия релизера

J_Man
[NNM-Club.ru]_WINE FROM TEARS [2013] [CD] Glad To Be Dead [EAC-FLAC].torrent
 Торрент:   Зарегистрирован
 


Зарегистрируйтесь и скачайте торрент!
 Зарегистрирован:   19 Июл 2013 21:51:37
 Размер:   388 MB  (
 Рейтинг:    (Голосов: 8)
 Поблагодарили:   30
 Проверка:   Оформление проверено модератором 19 Июл 2013 22:41:45
Как cкачать  ·  Как раздать  ·  Правильно оформить  ·  Поднять ратио!  
Показать сообщения:   
Начать новую тему   Ответить на тему    Торрент-трекер NNM-Club -> Rock, Alternative, Punk, Metal -> Metal (Lossless) Часовой пояс: GMT + 3
Страница 1 из 1