Классический форум-трекер
canvas not supported
Нас вместе: 4 070 985
loading...

Snowy White - The Way it is: live (2005) DVD5


 
 
RSS
Начать новую тему   Ответить на тему    Торрент-трекер NNM-Club -> Архив торрентов -> Архив Музыкального Видео
Автор Сообщение
gigelmesh ®
Стаж: 6 лет 7 мес.
Сообщений: 572
Ratio: 93,708
Поблагодарили: 26722
100%
Snowy White - The Way it is: live (2005) DVD5
Год выпуска: 2005
Жанр: Blues Rock

Описание фильма:
Теренс Чарльз Уайт получил свою первую гитару от родителей, когда ему исполнилось десять лет. На становление музыкальных вкусов молодого человека повлияли такие артисты как Джон Майалл и Эрик Клэптон, Би Би Кинг и Отис Раш, Бадди Гай и Альберт Кинг. Впоследствии Уайт выработал собственный стиль, комбинирующий чисто блюзовые фишки с тяжелыми риффами.
Концерт 2004г.

Трек лист:
01. No Stranger To The Blues (Snowy White/Gil Marais-Gilchrist) (03:57)
02. What I'M Searching For (6:24)
03. Little Wing (Jimi Hendrix) (5:24)
04. Blues Is The Road (4:44)
05. I Loved Another Woman (Peter Green) (4:47)
06. The Answer (2:56)
07. Land Of Plenty (6:42)
08. Lucky Star (5:19)
09. Teprjsah (Walter Latupeirissa) (7:35)
10. Working Blues (6:14)
11. Angel Inside You, Part I & Ii (12:28)
12. This Time Of My Life (3:41)
13. A Piece Of Your Love (4:12)
14. Black Magic Woman (Peter Green)
Personnel:
Snowy White: Guitars, Vocals.
Walter Latupeirissa: Bass Guitar, Vocals.
Max Middleton: Hammond Organ, Keyboards, Piano, Vocals.
Richard Bailey: Drums, Percussion.
Качество видео: DVD5
Формат: DVD Video
Видео: NTSC 4:3 (720x480) VBR
Аудио: Dolby AC3, 2 ch
Продолжительность: 01:14:44
Перевод: Не требуется
Общее
Полное имя : D:\MEDIA\Audio\Snowy White - The Way it is (2005)\VIDEO_TS\VIDEO_TS.BUP
Формат : DVD Video
Профиль формата : Menu
Размер файла : 16,0 Кбайт
Режим общего битрейта : Переменный

Видео
Идентификатор : 224 (0xE0)
Формат : MPEG Video
Версия формата : Version 2
Вид битрейта : Переменный
Ширина : 720 пикселей
Высота : 480 пикселей
Соотношение сторон : 4:3
Частота кадров : 29,970 кадров/сек
Стандарт вещания : NTSC
Метод сжатия : С потерями

Текст
Формат : RLE
Формат/Информация : Run-length encoding
Битовая глубина : 2 бит

Общее
Полное имя : D:\MEDIA\Audio\Snowy White - The Way it is (2005)\VIDEO_TS\VIDEO_TS.IFO
Формат : DVD Video
Профиль формата : Menu
Размер файла : 16,0 Кбайт
Режим общего битрейта : Переменный

Видео
Идентификатор : 224 (0xE0)
Формат : MPEG Video
Версия формата : Version 2
Вид битрейта : Переменный
Ширина : 720 пикселей
Высота : 480 пикселей
Соотношение сторон : 4:3
Частота кадров : 29,970 кадров/сек
Стандарт вещания : NTSC
Метод сжатия : С потерями

Текст
Формат : RLE
Формат/Информация : Run-length encoding
Битовая глубина : 2 бит

Общее
Полное имя : D:\MEDIA\Audio\Snowy White - The Way it is (2005)\VIDEO_TS\VIDEO_TS.VOB
Формат : MPEG-PS
Размер файла : 114 Кбайт
Продолжительность : 400 мс.
Общий поток : 2335 Кбит/сек

Видео
Идентификатор : 224 (0xE0)
Формат : MPEG Video
Версия формата : Version 2
Профиль формата : Main@Main
Параметр BVOP формата : Да
Параметр матрицы формата : Выборочная
Продолжительность : 400 мс.
Максимальный битрейт : 2000 Кбит/сек
Ширина : 720 пикселей
Высота : 480 пикселей
Соотношение сторон : 4:3
Частота кадров : 29,970 кадров/сек
Стандарт вещания : NTSC
Цветовое пространство : YUV
Субдискретизация насыщенности : 4:2:0
Битовая глубина : 8 бит
Тип развёртки : Чересстрочная
Порядок развёртки : Верхнее поле первое
Метод сжатия : С потерями
TimeCode_FirstFrame : 00:00:00:01
TimeCode_Source : Group of pictures header

Текст
Идентификатор : 189 (0xBD)-32 (0x20)
Формат : RLE
Формат/Информация : Run-length encoding
Режим смешивания : DVD-Video
Задержка видео : -66 мс.

Меню

Общее
Полное имя : D:\MEDIA\Audio\Snowy White - The Way it is (2005)\VIDEO_TS\VTS_01_0.BUP
Формат : DVD Video
Профиль формата : Program
Размер файла : 20,0 Кбайт
Продолжительность : 15 с.
Режим общего битрейта : Переменный
Общий поток : 10,3 Кбит/сек

Видео
Идентификатор : 224 (0xE0)
Формат : MPEG Video
Версия формата : Version 2
Продолжительность : 15 с.
Вид битрейта : Переменный
Ширина : 720 пикселей
Высота : 480 пикселей
Соотношение сторон : 4:3
Частота кадров : 29,970 кадров/сек
Стандарт вещания : NTSC
Метод сжатия : С потерями

Меню
Продолжительность : 15 с.
00:00:00.000 : Chapter 1

Общее
Полное имя : D:\MEDIA\Audio\Snowy White - The Way it is (2005)\VIDEO_TS\VTS_01_0.IFO
Формат : DVD Video
Профиль формата : Program
Размер файла : 20,0 Кбайт
Продолжительность : 15 с.
Режим общего битрейта : Переменный
Общий поток : 10,3 Кбит/сек

Видео
Идентификатор : 224 (0xE0)
Формат : MPEG Video
Версия формата : Version 2
Продолжительность : 15 с.
Вид битрейта : Переменный
Ширина : 720 пикселей
Высота : 480 пикселей
Соотношение сторон : 4:3
Частота кадров : 29,970 кадров/сек
Стандарт вещания : NTSC
Метод сжатия : С потерями

Меню
Продолжительность : 15 с.
00:00:00.000 : Chapter 1

Общее
Полное имя : D:\MEDIA\Audio\Snowy White - The Way it is (2005)\VIDEO_TS\VTS_01_0.VOB
Формат : MPEG-PS
Размер файла : 5,76 Мбайт
Продолжительность : 28 с.
Режим общего битрейта : Переменный
Общий поток : 1670 Кбит/сек

Видео
Идентификатор : 224 (0xE0)
Формат : MPEG Video
Версия формата : Version 2
Профиль формата : Main@Main
Параметр BVOP формата : Нет
Параметр матрицы формата : Выборочная
Продолжительность : 33 мс.
Вид битрейта : Переменный
Битрейт : 100 Кбит/сек
Максимальный битрейт : 9000 Кбит/сек
Ширина : 720 пикселей
Высота : 480 пикселей
Соотношение сторон : 4:3
Частота кадров : 29,970 кадров/сек
Стандарт вещания : NTSC
Цветовое пространство : YUV
Субдискретизация насыщенности : 4:2:0
Битовая глубина : 8 бит
Тип развёртки : Прогрессивная
Метод сжатия : С потерями
Бит/(Пиксели*Кадры) : 0.010
TimeCode_FirstFrame : 00:00:00:00
TimeCode_Source : Group of pictures header
Размер потока : 418 байт (0%)
Основные цвета : BT.601 NTSC
Характеристики трансфера : BT.601
Коэффициенты матрицы : BT.601

Аудио
Идентификатор : 189 (0xBD)-160 (0xA0)
Формат : PCM
Параметр Endianness формата : Big
Параметр Sign формата : Signed
Режим смешивания : DVD-Video
Продолжительность : 28 с.
Вид битрейта : Постоянный
Битрейт : 1536 Кбит/сек
Каналы : 2 канала
Частота : 48,0 КГц
Битовая глубина : 16 бит
Размер потока : 5,30 Мбайт (92%)

Текст
Идентификатор : 189 (0xBD)-32 (0x20)
Формат : RLE
Формат/Информация : Run-length encoding
Режим смешивания : DVD-Video

Меню

Общее
Полное имя : D:\MEDIA\Audio\Snowy White - The Way it is (2005)\VIDEO_TS\VTS_01_1.VOB
Формат : MPEG-PS
Размер файла : 9,65 Мбайт
Продолжительность : 15 с.
Общий поток : 5086 Кбит/сек

Видео
Идентификатор : 224 (0xE0)
Формат : MPEG Video
Версия формата : Version 2
Профиль формата : Main@Main
Параметр BVOP формата : Да
Параметр матрицы формата : По умолчанию
Параметр GOP формата : M=3, N=10
Продолжительность : 15 с.
Битрейт : 5000 Кбит/сек
Ширина : 720 пикселей
Высота : 480 пикселей
Соотношение сторон : 4:3
Частота кадров : 29,970 кадров/сек
Стандарт вещания : NTSC
Цветовое пространство : YUV
Субдискретизация насыщенности : 4:2:0
Битовая глубина : 8 бит
Тип развёртки : Чересстрочная
Порядок развёртки : Верхнее поле первое
Метод сжатия : С потерями
Бит/(Пиксели*Кадры) : 0.483
TimeCode_FirstFrame : 01:10:46:25
TimeCode_Source : Group of pictures header
Размер потока : 9,46 Мбайт (98%)
Основные цвета : BT.601 NTSC
Характеристики трансфера : BT.601
Коэффициенты матрицы : BT.601

Меню

Общее
Полное имя : D:\MEDIA\Audio\Snowy White - The Way it is (2005)\VIDEO_TS\VTS_02_0.BUP
Формат : DVD Video
Профиль формата : Program
Размер файла : 62,0 Кбайт
Продолжительность : 1 ч. 14 м.
Режим общего битрейта : Переменный
Общий поток : 113 бит/сек

Видео
Идентификатор : 224 (0xE0)
Формат : MPEG Video
Версия формата : Version 2
Продолжительность : 1 ч. 14 м.
Вид битрейта : Переменный
Ширина : 720 пикселей
Высота : 480 пикселей
Соотношение сторон : 4:3
Частота кадров : 29,970 кадров/сек
Стандарт вещания : NTSC
Метод сжатия : С потерями

Аудио
Идентификатор : 128 (0x80)
Формат : AC-3
Формат/Информация : Audio Coding 3
Продолжительность : 1 ч. 14 м.
Каналы : 2 канала
Частота : 48,0 КГц
Метод сжатия : С потерями

Меню #1
Продолжительность : 1 ч. 14 м.
00:00:00.000 : Chapter 1
00:00:08.500 : Chapter 2
00:04:04.633 : Chapter 3
00:10:12.566 : Chapter 4
00:16:04.132 : Chapter 5
00:20:48.865 : Chapter 6
00:25:35.931 : Chapter 7
00:28:38.131 : Chapter 8
00:35:13.464 : Chapter 9
00:40:34.664 : Chapter 10
00:48:09.164 : Chapter 11
00:54:23.797 : Chapter 12
01:06:50.063 : Chapter 13
01:10:32.696 : Chapter 14
List (Audio) : 0

Меню #2
Продолжительность : 1 ч. 14 м.
00:00:00.000 : Chapter 1
00:00:03.640 : Chapter 2
00:00:16.640 : Chapter 3
00:00:22.080 : Chapter 4
00:00:26.240 : Chapter 5
00:00:30.520 : Chapter 6
00:00:35.520 : Chapter 7
00:01:16.520 : Chapter 8
00:01:42.520 : Chapter 9
00:02:23.520 : Chapter 10
00:02:43.520 : Chapter 11
00:03:21.520 : Chapter 12
00:03:24.600 : Chapter 13
List (Audio) : 0

Меню #3

Общее
Полное имя : D:\MEDIA\Audio\Snowy White - The Way it is (2005)\VIDEO_TS\VTS_02_0.IFO
Формат : DVD Video
Профиль формата : Program
Размер файла : 62,0 Кбайт
Продолжительность : 1 ч. 14 м.
Режим общего битрейта : Переменный
Общий поток : 113 бит/сек

Видео
Идентификатор : 224 (0xE0)
Формат : MPEG Video
Версия формата : Version 2
Продолжительность : 1 ч. 14 м.
Вид битрейта : Переменный
Ширина : 720 пикселей
Высота : 480 пикселей
Соотношение сторон : 4:3
Частота кадров : 29,970 кадров/сек
Стандарт вещания : NTSC
Метод сжатия : С потерями

Аудио
Идентификатор : 128 (0x80)
Формат : AC-3
Формат/Информация : Audio Coding 3
Продолжительность : 1 ч. 14 м.
Каналы : 2 канала
Частота : 48,0 КГц
Метод сжатия : С потерями

Меню #1
Продолжительность : 1 ч. 14 м.
00:00:00.000 : Chapter 1
00:00:08.500 : Chapter 2
00:04:04.633 : Chapter 3
00:10:12.566 : Chapter 4
00:16:04.132 : Chapter 5
00:20:48.865 : Chapter 6
00:25:35.931 : Chapter 7
00:28:38.131 : Chapter 8
00:35:13.464 : Chapter 9
00:40:34.664 : Chapter 10
00:48:09.164 : Chapter 11
00:54:23.797 : Chapter 12
01:06:50.063 : Chapter 13
01:10:32.696 : Chapter 14
List (Audio) : 0

Меню #2
Продолжительность : 1 ч. 14 м.
00:00:00.000 : Chapter 1
00:00:03.640 : Chapter 2
00:00:16.640 : Chapter 3
00:00:22.080 : Chapter 4
00:00:26.240 : Chapter 5
00:00:30.520 : Chapter 6
00:00:35.520 : Chapter 7
00:01:16.520 : Chapter 8
00:01:42.520 : Chapter 9
00:02:23.520 : Chapter 10
00:02:43.520 : Chapter 11
00:03:21.520 : Chapter 12
00:03:24.600 : Chapter 13
List (Audio) : 0

Меню #3

Общее
Полное имя : D:\MEDIA\Audio\Snowy White - The Way it is (2005)\VIDEO_TS\VTS_02_0.VOB
Формат : MPEG-PS
Размер файла : 114 Кбайт
Продолжительность : 400 мс.
Общий поток : 2335 Кбит/сек

Видео
Идентификатор : 224 (0xE0)
Формат : MPEG Video
Версия формата : Version 2
Профиль формата : Main@Main
Параметр BVOP формата : Да
Параметр матрицы формата : Выборочная
Продолжительность : 400 мс.
Максимальный битрейт : 2000 Кбит/сек
Ширина : 720 пикселей
Высота : 480 пикселей
Соотношение сторон : 4:3
Частота кадров : 29,970 кадров/сек
Стандарт вещания : NTSC
Цветовое пространство : YUV
Субдискретизация насыщенности : 4:2:0
Битовая глубина : 8 бит
Тип развёртки : Чересстрочная
Порядок развёртки : Верхнее поле первое
Метод сжатия : С потерями
TimeCode_FirstFrame : 00:00:00:01
TimeCode_Source : Group of pictures header

Текст
Идентификатор : 189 (0xBD)-32 (0x20)
Формат : RLE
Формат/Информация : Run-length encoding
Режим смешивания : DVD-Video
Задержка видео : -66 мс.

Меню

Общее
Полное имя : D:\MEDIA\Audio\Snowy White - The Way it is (2005)\VIDEO_TS\VTS_02_1.VOB
Формат : MPEG-PS
Размер файла : 1024 Мбайт
Продолжительность : 22 м.
Режим общего битрейта : Переменный
Общий поток : 6315 Кбит/сек

Видео
Идентификатор : 224 (0xE0)
Формат : MPEG Video
Версия формата : Version 2
Профиль формата : Main@Main
Параметр BVOP формата : Да
Параметр матрицы формата : Выборочная
Параметр GOP формата : M=3, N=15
Продолжительность : 22 м.
Вид битрейта : Переменный
Битрейт : 5998 Кбит/сек
Максимальный битрейт : 7000 Кбит/сек
Ширина : 720 пикселей
Высота : 480 пикселей
Соотношение сторон : 4:3
Частота кадров : 29,970 кадров/сек
Стандарт вещания : NTSC
Цветовое пространство : YUV
Субдискретизация насыщенности : 4:2:0
Битовая глубина : 8 бит
Тип развёртки : Чересстрочная
Порядок развёртки : Верхнее поле первое
Метод сжатия : С потерями
Бит/(Пиксели*Кадры) : 0.579
TimeCode_FirstFrame : 00:00:00:00
TimeCode_Source : Group of pictures header
Размер потока : 972 Мбайт (95%)

Аудио
Идентификатор : 189 (0xBD)-128 (0x80)
Формат : AC-3
Формат/Информация : Audio Coding 3
Расширение режима : CM (complete main)
Параметр Endianness формата : Big
Режим смешивания : DVD-Video
Продолжительность : 22 м.
Вид битрейта : Постоянный
Битрейт : 192 Кбит/сек
Каналы : 2 канала
Расположение каналов : Front: L R
Частота : 48,0 КГц
Битовая глубина : 16 бит
Метод сжатия : С потерями
Задержка видео : -67 мс.
Размер потока : 31,1 Мбайт (3%)

Меню

Общее
Полное имя : D:\MEDIA\Audio\Snowy White - The Way it is (2005)\VIDEO_TS\VTS_02_2.VOB
Формат : MPEG-PS
Размер файла : 1024 Мбайт
Продолжительность : 22 м.
Режим общего битрейта : Переменный
Общий поток : 6315 Кбит/сек

Видео
Идентификатор : 224 (0xE0)
Формат : MPEG Video
Версия формата : Version 2
Профиль формата : Main@Main
Параметр BVOP формата : Да
Параметр матрицы формата : Выборочная
Параметр GOP формата : M=3, N=15
Продолжительность : 22 м.
Вид битрейта : Переменный
Битрейт : 5997 Кбит/сек
Максимальный битрейт : 7000 Кбит/сек
Ширина : 720 пикселей
Высота : 480 пикселей
Соотношение сторон : 4:3
Частота кадров : 29,970 кадров/сек
Стандарт вещания : NTSC
Цветовое пространство : YUV
Субдискретизация насыщенности : 4:2:0
Битовая глубина : 8 бит
Тип развёртки : Чересстрочная
Порядок развёртки : Верхнее поле первое
Метод сжатия : С потерями
Бит/(Пиксели*Кадры) : 0.579
TimeCode_FirstFrame : 00:22:39:01
TimeCode_Source : Group of pictures header
Размер потока : 972 Мбайт (95%)

Аудио
Идентификатор : 189 (0xBD)-128 (0x80)
Формат : AC-3
Формат/Информация : Audio Coding 3
Расширение режима : CM (complete main)
Параметр Endianness формата : Big
Режим смешивания : DVD-Video
Продолжительность : 22 м.
Вид битрейта : Постоянный
Битрейт : 192 Кбит/сек
Каналы : 2 канала
Расположение каналов : Front: L R
Частота : 48,0 КГц
Битовая глубина : 16 бит
Метод сжатия : С потерями
Задержка видео : -651 мс.
Размер потока : 31,1 Мбайт (3%)

Меню

Общее
Полное имя : D:\MEDIA\Audio\Snowy White - The Way it is (2005)\VIDEO_TS\VTS_02_3.VOB
Формат : MPEG-PS
Размер файла : 1024 Мбайт
Продолжительность : 22 м.
Режим общего битрейта : Переменный
Общий поток : 6315 Кбит/сек

Видео
Идентификатор : 224 (0xE0)
Формат : MPEG Video
Версия формата : Version 2
Профиль формата : Main@Main
Параметр BVOP формата : Да
Параметр матрицы формата : Выборочная
Параметр GOP формата : M=3, N=15
Продолжительность : 22 м.
Вид битрейта : Переменный
Битрейт : 5997 Кбит/сек
Максимальный битрейт : 7000 Кбит/сек
Ширина : 720 пикселей
Высота : 480 пикселей
Соотношение сторон : 4:3
Частота кадров : 29,970 кадров/сек
Стандарт вещания : NTSC
Цветовое пространство : YUV
Субдискретизация насыщенности : 4:2:0
Битовая глубина : 8 бит
Тип развёртки : Чересстрочная
Порядок развёртки : Верхнее поле первое
Метод сжатия : С потерями
Бит/(Пиксели*Кадры) : 0.579
TimeCode_FirstFrame : 00:45:17:21
TimeCode_Source : Group of pictures header
Размер потока : 972 Мбайт (95%)

Аудио
Идентификатор : 189 (0xBD)-128 (0x80)
Формат : AC-3
Формат/Информация : Audio Coding 3
Расширение режима : CM (complete main)
Параметр Endianness формата : Big
Режим смешивания : DVD-Video
Продолжительность : 22 м.
Вид битрейта : Постоянный
Битрейт : 192 Кбит/сек
Каналы : 2 канала
Расположение каналов : Front: L R
Частота : 48,0 КГц
Битовая глубина : 16 бит
Метод сжатия : С потерями
Задержка видео : -645 мс.
Размер потока : 31,1 Мбайт (3%)

Меню

Общее
Полное имя : D:\MEDIA\Audio\Snowy White - The Way it is (2005)\VIDEO_TS\VTS_02_4.VOB
Формат : MPEG-PS
Размер файла : 307 Мбайт
Продолжительность : 6 м. 48 с.
Режим общего битрейта : Переменный
Общий поток : 6312 Кбит/сек

Видео
Идентификатор : 224 (0xE0)
Формат : MPEG Video
Версия формата : Version 2
Профиль формата : Main@Main
Параметр BVOP формата : Да
Параметр матрицы формата : Выборочная
Параметр GOP формата : M=3, N=15
Продолжительность : 6 м. 48 с.
Вид битрейта : Переменный
Битрейт : 5994 Кбит/сек
Максимальный битрейт : 7000 Кбит/сек
Ширина : 720 пикселей
Высота : 480 пикселей
Соотношение сторон : 4:3
Частота кадров : 29,970 кадров/сек
Стандарт вещания : NTSC
Цветовое пространство : YUV
Субдискретизация насыщенности : 4:2:0
Битовая глубина : 8 бит
Тип развёртки : Чересстрочная
Порядок развёртки : Верхнее поле первое
Метод сжатия : С потерями
Бит/(Пиксели*Кадры) : 0.579
TimeCode_FirstFrame : 01:07:56:04
TimeCode_Source : Group of pictures header
Размер потока : 292 Мбайт (95%)

Аудио
Идентификатор : 189 (0xBD)-128 (0x80)
Формат : AC-3
Формат/Информация : Audio Coding 3
Расширение режима : CM (complete main)
Параметр Endianness формата : Big
Режим смешивания : DVD-Video
Продолжительность : 6 м. 48 с.
Вид битрейта : Постоянный
Битрейт : 192 Кбит/сек
Каналы : 2 канала
Расположение каналов : Front: L R
Частота : 48,0 КГц
Битовая глубина : 16 бит
Метод сжатия : С потерями
Задержка видео : -372 мс.
Размер потока : 9,35 Мбайт (3%)

Меню

Общее
Полное имя : D:\MEDIA\Audio\Snowy White - The Way it is (2005)\VIDEO_TS\VTS_03_0.BUP
Формат : DVD Video
Профиль формата : Program
Размер файла : 18,0 Кбайт
Продолжительность : 3 м. 15 с.
Режим общего битрейта : Переменный
Общий поток : 755 бит/сек

Видео
Идентификатор : 224 (0xE0)
Формат : MPEG Video
Версия формата : Version 2
Продолжительность : 3 м. 15 с.
Вид битрейта : Переменный
Ширина : 720 пикселей
Высота : 480 пикселей
Соотношение сторон : 4:3
Частота кадров : 29,970 кадров/сек
Стандарт вещания : NTSC
Метод сжатия : С потерями

Аудио
Идентификатор : 128 (0x80)
Формат : AC-3
Формат/Информация : Audio Coding 3
Продолжительность : 3 м. 15 с.
Каналы : 2 канала
Частота : 48,0 КГц
Метод сжатия : С потерями

Меню
Продолжительность : 3 м. 15 с.
00:00:00.000 : Chapter 1
List (Audio) : 0

Общее
Полное имя : D:\MEDIA\Audio\Snowy White - The Way it is (2005)\VIDEO_TS\VTS_03_0.IFO
Формат : DVD Video
Профиль формата : Program
Размер файла : 18,0 Кбайт
Продолжительность : 3 м. 15 с.
Режим общего битрейта : Переменный
Общий поток : 755 бит/сек

Видео
Идентификатор : 224 (0xE0)
Формат : MPEG Video
Версия формата : Version 2
Продолжительность : 3 м. 15 с.
Вид битрейта : Переменный
Ширина : 720 пикселей
Высота : 480 пикселей
Соотношение сторон : 4:3
Частота кадров : 29,970 кадров/сек
Стандарт вещания : NTSC
Метод сжатия : С потерями

Аудио
Идентификатор : 128 (0x80)
Формат : AC-3
Формат/Информация : Audio Coding 3
Продолжительность : 3 м. 15 с.
Каналы : 2 канала
Частота : 48,0 КГц
Метод сжатия : С потерями

Меню
Продолжительность : 3 м. 15 с.
00:00:00.000 : Chapter 1
List (Audio) : 0

Общее
Полное имя : D:\MEDIA\Audio\Snowy White - The Way it is (2005)\VIDEO_TS\VTS_03_0.VOB
Формат : MPEG-PS
Размер файла : 114 Кбайт
Продолжительность : 400 мс.
Общий поток : 2335 Кбит/сек

Видео
Идентификатор : 224 (0xE0)
Формат : MPEG Video
Версия формата : Version 2
Профиль формата : Main@Main
Параметр BVOP формата : Да
Параметр матрицы формата : Выборочная
Продолжительность : 400 мс.
Максимальный битрейт : 2000 Кбит/сек
Ширина : 720 пикселей
Высота : 480 пикселей
Соотношение сторон : 4:3
Частота кадров : 29,970 кадров/сек
Стандарт вещания : NTSC
Цветовое пространство : YUV
Субдискретизация насыщенности : 4:2:0
Битовая глубина : 8 бит
Тип развёртки : Чересстрочная
Порядок развёртки : Верхнее поле первое
Метод сжатия : С потерями
TimeCode_FirstFrame : 00:00:00:01
TimeCode_Source : Group of pictures header

Текст
Идентификатор : 189 (0xBD)-32 (0x20)
Формат : RLE
Формат/Информация : Run-length encoding
Режим смешивания : DVD-Video
Задержка видео : -66 мс.

Меню

Общее
Полное имя : D:\MEDIA\Audio\Snowy White - The Way it is (2005)\VIDEO_TS\VTS_03_1.VOB
Формат : MPEG-PS
Размер файла : 147 Мбайт
Продолжительность : 3 м. 15 с.
Режим общего битрейта : Переменный
Общий поток : 6316 Кбит/сек

Видео
Идентификатор : 224 (0xE0)
Формат : MPEG Video
Версия формата : Version 2
Профиль формата : Main@Main
Параметр BVOP формата : Да
Параметр матрицы формата : Выборочная
Параметр GOP формата : M=3, N=15
Продолжительность : 3 м. 15 с.
Вид битрейта : Переменный
Битрейт : 5999 Кбит/сек
Максимальный битрейт : 7000 Кбит/сек
Ширина : 720 пикселей
Высота : 480 пикселей
Соотношение сторон : 4:3
Частота кадров : 29,970 кадров/сек
Стандарт вещания : NTSC
Цветовое пространство : YUV
Субдискретизация насыщенности : 4:2:0
Битовая глубина : 8 бит
Тип развёртки : Чересстрочная
Порядок развёртки : Верхнее поле первое
Метод сжатия : С потерями
Бит/(Пиксели*Кадры) : 0.579
TimeCode_FirstFrame : 00:00:00:00
TimeCode_Source : Group of pictures header
Размер потока : 140 Мбайт (95%)

Аудио
Идентификатор : 189 (0xBD)-128 (0x80)
Формат : AC-3
Формат/Информация : Audio Coding 3
Расширение режима : CM (complete main)
Параметр Endianness формата : Big
Режим смешивания : DVD-Video
Продолжительность : 3 м. 15 с.
Вид битрейта : Постоянный
Битрейт : 192 Кбит/сек
Каналы : 2 канала
Расположение каналов : Front: L R
Частота : 48,0 КГц
Битовая глубина : 16 бит
Метод сжатия : С потерями
Задержка видео : -67 мс.
Размер потока : 4,46 Мбайт (3%)

Забросив школу в 16 лет, "с двумя пенни в кармане", Сноуи перебрался из Девона в Лондон. Уайту потребовалось не слишком много времени, чтобы заработать статус талантливого сессионщика. Немалую роль в продвижении молодого музыканта сыграли простота и легкость его характера.
В 1974 году Сноуи совершил вояж в Америку, посетив Мекку блюза, Новый Орлеан, чем остался весьма доволен. Где-то в этот же период Уайт познакомился с Питером Грином, и гитаристы частенько устраивали совместные джемы. В середине 70-х Сноуи много трудился на сессионной работе, но уже начал потихоньку писать собственный материал.
Snowy White Осенью 1976-го Уайту неожиданно пришло приглашение поработать в "Pink Floyd", и он с удовольствием согласился. С этой группой Сноуи гастролировал около двух лет, а потом помог Рику Райту записать сольник "Wet dream". В 1979 году, когда Питер Грин решил возобновить свою карьеру, он пригласил Уайта поджемовать вместе как в старые добрые времена. В результате на свет появился альбом "In the skies". Не успел Сноуи опомниться от этих сессий, как на него свалились сразу два предложения – от "Pink Floyd" и от "Thin Lizzy". Гитарист принял оба приглашения и после американских концертов "Флойда" отправился записывать "Chinatown". Примечательно, что несколько песен из этого альбома (впрочем как и в случае с "Renegade), включая заглавный трек, были написаны в соавторстве со Сноуи.
В 1982 году Уайт расстался с "Thin Lizzy" и решил начать сольную карьеру. В состав сопровождающей его команды вошли Ричард Бэйли (ударные), Годфри Вонг (клавишные) и Кума Харада (бас). Альбом "White flames" сопровождался хит-синглом "Bird of paradise", занявшим высокие позиции в чартах многих стран.
Snowy WhiteПосле "Bird of paradise" многие стали воспринимать Уайта как балладного исполнителя, поэтому музыкант решил сменить ориентиры и собрал новую, блюзовую команду "The blues agency". В период с 1986 по 1989-й группа много гастролировала по Европе, а также выпустила пару альбомов. В июне 1990 года Роджер Уотерс привлек Уайта к своему грандиозному проекту организации концерта "The Wall" в Берлине. Одним из ярких моментов этого шоу стало соло Сноуи в "Comfortably numb", исполненное им на восьмидесятифутовой стене. В 1991-м гитарист еще разок выручил Уотерса на концерте "Guitar legends", после чего занялся подготовкой очередного сольного альбома.
"Highway to the sun" содержал помимо собственного материала кавер Грина "I loved another woman", а среди гостей на нем значились Крис Ри, Дэвид Гилмор и Гэри Мур. В 1996-м Уайт выпустил компиляцию "Gold top", куда вошли его сессионные работы с "Thin Lizzy", Питером Грином, Элом Стюартом, "Pink Floyd", а также некоторые концертные номера. В конце 90-х, а также в начале нового тысячелетия Сноуи вместе с "White flames" продолжал выпускать сольные альбомы и участвовал в гастрольных турах Роджера Уотерса.
Скриншоты:


Snowy White - Live in London (1984)

Время раздачи: с 08:00 до 24:00
[NNM-Club.ru]_Snowy White - The Way it is (2005).torrent
 Торрент: Платиновая раздача  Зарегистрирован
 
Скачать


 Зарегистрирован:   30 Июн 2013 11:30:57
 Размер:   3,46 GB  (
 Рейтинг:   4,6 (Голосов: 13)
 Поблагодарили:   23
 Проверка:   Оформление проверено модератором 07 Июл 2013 11:08:29
Как cкачать  ·  Как раздать  ·  Правильно оформить  ·  Поднять ратио!  
Топик был перенесен из форума Концерты (DVD) в форум Архив Музыкального Видео

Причина переноса: Раздающего не было месяц или более
Robert Ingil
Показать сообщения:   
Начать новую тему   Ответить на тему    Торрент-трекер NNM-Club -> Архив торрентов -> Архив Музыкального Видео Часовой пояс: GMT + 3
Страница 1 из 1