Интеллигентный торрент-трекер
Нас вместе: 3 803 202 | Новости торрент-трекера | Как тут скачивать? | Как раздавать торренты? | Правила оформления

Скачать бесплатно торрент Кредо Убийцы / Assassin's Creed 4_ Black Flag - Gameplay (2013) HDRip torrent download


 
 
RSS
Начать новую тему   Ответить на тему    Торрент-трекер NNM-Club -> Остальное -> Игровое видео
Предыдущая тема :: Следующая тема 
Автор Сообщение
klaus1119 ®
Стаж: 1 год 5 мес.
Сообщений: 377
Ratio: 13,242
Поблагодарили: 6357
100%
Откуда: Карибы
pirates.png
Сообщение 25 Июн 2013 19:08:54  Заголовок сообщения: Кредо Убийцы / Assassin's Creed 4_ Black Flag - Gameplay (2013) HDRip Ответить с цитатой

Кредо Убийцы / Assassin's Creed 4_ Black Flag - Gameplay (2013) HDRip
Дата выхода игры : Запланирована на 29 октября 2013
Жанр: Action / 3D / 3rd Person
Платформы: PC, XBOX 360, PS3, PS4, Wii

Разработчик:Ubisoft Montreal
Издатель (Мир):Ubisoft Entertainment
Издатель (Россия):n/a

Описание фильма:
Главный герой – Эдвард Кенуэй, отец Хэйтама Кенуэя и дед Коннора Кенуэя (соответственно, антагониста и протагониста Assassin's Creed III). Это дерзкая, харизматическая, бесстрашная и самоуверенная личность, гений пиратства. В первую очередь, Эдвард считается пиратом, и лишь во вторую – ассасином. Он может переносить до четырех огнестрельных оружий. Кроме того, доступны абордажные сабли, кинжалы, мечи и тому подобные оружия.

4 марта 2013 года стало известно, что события «Черного Флага» будут происходить преимущественно в XVIII веке, в таких уголках планеты, как Флорида, Куба, Багамы и Нассо. Пиратство образца 1715 года в Black Flag показано в серьезном ключе, без комедийных приемов: это промысел, основанный на убийствах и грабеже. Игровые пираты основаны на реальных личностях, включая Черную Бороду, Чарльза Вейна, Калико Джека, Энн Бонни, Бенджамина Хорниголда. Кроме того, присутствует вариация Джека Воробья. Тогда как в Assassin's Creed III основой было вымышленное повествование, в Assassin's Creed IV: Black Flag важнейшую роль играют события, происходившие в реальной истории. Например, есть нападение Бартоломью Робертса на 42 португальских корабля. Ubisoft сообщает об открытом мире с тропическими штормами, гарпунной охотой на китов и подводным геймплеем, происходящим в результате кораблекрушений. Благодаря помощи команды, работавшей над дизайном мира Far Cry 3, мир «Черного Флага» будет динамичным.

Продолжительность: 00:05:25
Качество видео: HDRip
Перевод: Отсутствует

Видеокодек: AAC
Битрейт видео: ~985 Кбит/сек
Размер кадра: 854х480
Аудиокодек: AAC
Битрейт аудио: 129 Кбит/сек
Общее
Полное имя : C:\Users\Alik\Desktop\Кредо Убийцы Assassin's Creed 4_ Black Flag - Gameplay (2013) HDRip.flv
Формат : Flash Video
Размер файла : 43,5 Мбайт
Продолжительность : 5 м. 24 с.
Общий поток : 1122 Кбит/сек
httphostheader : r5---sn-hxb54vo-304e.c.youtube.com

Видео
Формат : AVC
Формат/Информация : Advanced Video Codec
Профиль формата : Main@L3.1
Параметр CABAC формата : Да
Параметр ReFrames формата : 3 кадра
Идентификатор кодека : 7
Продолжительность : 5 м. 24 с.
Битрейт : 985 Кбит/сек
Ширина : 854 пикселя
Высота : 480 пикселей
Соотношение сторон : 16:9
Режим частоты кадров : Постоянный
Частота кадров : 29,970 кадров/сек
Цветовое пространство : YUV
Субдискретизация насыщенности : 4:2:0
Битовая глубина : 8 бит
Тип развёртки : Прогрессивная
Бит/(Пиксели*Кадры) : 0.080
Размер потока : 38,2 Мбайт (88%)

Аудио
Формат : AAC
Формат/Информация : Advanced Audio Codec
Профиль формата : LC
Идентификатор кодека : 10
Продолжительность : 5 м. 25 с.
Битрейт : 129 Кбит/сек
Каналы : 2 канала
Расположение каналов : Front: L R
Частота : 44,1 КГц
Метод сжатия : С потерями
Размер потока : 4,99 Мбайт (11%)
Скриншоты:



Время раздачи: 24/7 (круглосуточно)
[NNM-Club.ru]_Kredo Ubiytsyi Assassin's Creed 4_ Black Flag - Gameplay (2013) HDRip.flv.torrent
 Торрент:   Зарегистрирован
 
Примагнититься

Зарегистрируйтесь и скачайте торрент!
 Зарегистрирован:   27 Июн 2013 05:57:42
 Размер:   43,5 MB  (
 Рейтинг:   4,6 (Голосов: 22)
 Поблагодарили:   48
 Проверка:   Оформление проверено модератором 29 Июн 2013 03:38:12
Как cкачать  ·  Как раздать  ·  Правильно оформить  ·  Поднять ратио!  


Последний раз редактировалось: klaus1119 (26 Июн 2013 11:44:13), всего редактировалось 3 раз(а)
vicnic75
Стаж: 3 года 5 мес.
Сообщений: 4
Ratio: 1,755
100%
russia.gif
Сообщение 29 Июн 2013 10:02:37  Заголовок сообщения: Ответить с цитатой

Ждём с нетерпением! :супер!: :супер!: :супер!: :супер!:
klaus1119 ®
Стаж: 1 год 5 мес.
Сообщений: 377
Ratio: 13,242
Поблагодарили: 6357
100%
Откуда: Карибы
pirates.png
Сообщение 29 Июн 2013 10:05:25  Заголовок сообщения: Ответить с цитатой

да я тоже но я слышал что PC версия задержиться

_________________
Roberto131
Реставратор клуба
Стаж: 1 год 10 мес.
Сообщений: 208
Ratio: 78,179
Поблагодарили: 3484
100%
ussr.gif
Сообщение 29 Июн 2013 11:14:59  Заголовок сообщения: Ответить с цитатой

Завораживает! Здорово:)
gluk1234
 
Стаж: 6 лет 3 мес.
Сообщений: 42
Ratio: 16,063
11.39%
Сообщение 29 Июн 2013 12:11:17  Заголовок сообщения: Ответить с цитатой

да елки палки, сколько они продолжений хотят сделать, до концовки видимо доживут немногие =(
klaus1119 ®
Стаж: 1 год 5 мес.
Сообщений: 377
Ratio: 13,242
Поблагодарили: 6357
100%
Откуда: Карибы
pirates.png
Сообщение 29 Июн 2013 12:18:34  Заголовок сообщения: Ответить с цитатой

Assassin's Creed 4 Black Flag это не будет последней частью еще после него выйдет две части

_________________
SARS78
Стаж: 6 лет 8 мес.
Сообщений: 402
Ratio: 12,865
19.84%
Откуда: Москва
russia.gif
Сообщение 29 Июн 2013 13:41:37  Заголовок сообщения: Ответить с цитатой

Ролик хорош!

Мы ещё застанем время, когда ассассины Иван Коноров и Ипполит Энцов будут бегать по Красной площади,
искать яблоко истины в Мавзолее.

Assassin's Creed 37: СМЕРШ зовёт.

_________________
Девушка из деревни уехать может, а вот деревня из девушки - никогда...

«Клуб любителей покера» +18
Показать сообщения:   
Начать новую тему   Ответить на тему    Торрент-трекер NNM-Club -> Остальное -> Игровое видео Часовой пояс: GMT + 4
Страница 1 из 1