Интеллигентный торрент-трекер
Нас вместе: 3 807 904 | Новости торрент-трекера | Как тут скачивать? | Как раздавать торренты? | Правила оформления

Bob Dylan - Bob Dylan's Greatest Hits Vol. II(1971) 2CD, Hybrid SACD remaster/2013, Audio Fidelity/ [FLAC|Lossless]<Rock / Folk rock>


 
 
RSS
Начать новую тему   Ответить на тему    Торрент-трекер NNM-Club -> Rock, Alternative, Punk, Metal -> Rock (Lossless)
Предыдущая тема :: Следующая тема  
Автор Сообщение
Bigbeer ®
Модератор Музыки
RG Музыки
 


Стаж: 5 лет
Сообщений: 2392
Ratio: 36,992
Раздал: 5,185 TB
Поблагодарили: 26995
100%
pirates.png

Сообщение 15 Июн 2013 18:30:21  Заголовок сообщения: Bob Dylan - Bob Dylan's Greatest Hits Vol. II(1971) 2CD, Hybrid SACD remaster/2013, Audio Fidelity/ [FLAC|Lossless]<R Ответить с цитатой

Bob Dylan - Bob Dylan's Greatest Hits Vol. II(1971) 2CD


Год: 1971/ 2013 | Издание: Audio Fidelity | Каталог№: AFZ2 145 | Жанр: Rock / Folk rock | Продолжительность: 01:19:04 | Источник(Релизер): ernesto | Кодек: FLAC | Метод сжатия: Lossless | Тип рипа: Image+.cue
Image
Official DR value: DR11
Продолжительность: 00:36:14
Треклист:

01. Watching The River Flow (3:37)
02. Don't Think Twice, It's All Right (3:41)
03. Lay Lady Lay (3:19)
04. Stuck Inside Of Mobile With The Memphis Blues Again (7:09)
05. I'll Be Your Baby Tonight (2:38)
06. All I Really Want To Do (4:05)
07. My Back Pages (4:25)
08. Maggies Farm (3:55)
09. Tonight I'll Be Staying Here With You (3:24)
Код:

REM GENRE Rock
REM DATE 1971
REM DISCID 79087D09
REM COMMENT "ExactAudioCopy v1.0b2"
PERFORMER "Bob Dylan"
TITLE "Bob Dylan's Greatest Hits Vol. II [2013 Audio Fidelity SACD AFZ2 145]"
FILE "Bob Dylan - Bob Dylan's Greatest Hits Vol. II [2013 Audio Fidelity SACD AFZ2 145].flac" WAVE
  TRACK 01 AUDIO
    TITLE "Watching The River Flow"
    PERFORMER "Bob Dylan"
    FLAGS DCP
    INDEX 01 00:00:00
  TRACK 02 AUDIO
    TITLE "Don't Think Twice, It's All Right"
    PERFORMER "Bob Dylan"
    FLAGS DCP
    INDEX 01 03:36:61
  TRACK 03 AUDIO
    TITLE "Lay Lady Lay"
    PERFORMER "Bob Dylan"
    FLAGS DCP
    INDEX 01 07:17:68
  TRACK 04 AUDIO
    TITLE "Stuck Inside Of Mobile With The Memphis Blues Again"
    PERFORMER "Bob Dylan"
    FLAGS DCP
    INDEX 01 10:37:21
  TRACK 05 AUDIO
    TITLE "I'll Be Your Baby Tonight"
    PERFORMER "Bob Dylan"
    FLAGS DCP
    INDEX 01 17:46:46
  TRACK 06 AUDIO
    TITLE "All I Really Want To Do"
    PERFORMER "Bob Dylan"
    FLAGS DCP
    INDEX 01 20:24:27
  TRACK 07 AUDIO
    TITLE "My Back Pages"
    PERFORMER "Bob Dylan"
    FLAGS DCP
    INDEX 01 24:29:29
  TRACK 08 AUDIO
    TITLE "Maggies Farm"
    PERFORMER "Bob Dylan"
    FLAGS DCP
    INDEX 01 28:54:44
  TRACK 09 AUDIO
    TITLE "Tonight I'll Be Staying Here With You"
    PERFORMER "Bob Dylan"
    FLAGS DCP
    INDEX 01 32:49:54
Код:

Exact Audio Copy V1.0 beta 2 from 29. April 2011

EAC extraction logfile from 29. May 2013, 21:10

Bob Dylan / Bob Dylan's Greatest Hits Vol. II [2013 Audio Fidelity SACD AFZ2 145]

Used drive  : HL-DT-STDVDRAM GH60N   Adapter: 0  ID: 1

Read mode               : Secure
Utilize accurate stream : Yes
Defeat audio cache      : Yes
Make use of C2 pointers : No

Read offset correction                      : 667
Overread into Lead-In and Lead-Out          : No
Fill up missing offset samples with silence : Yes
Delete leading and trailing silent blocks   : No
Null samples used in CRC calculations       : Yes
Used interface                              : Native Win32 interface for Win NT & 2000

Used output format              : User Defined Encoder
Selected bitrate                : 1024 kBit/s
Quality                         : High
Add ID3 tag                     : No
Command line compressor         : C:\Program Files (x86)\Exact Audio Copy\Flac\flac.exe
Additional command line options : -V -5 -T "artist=%albumartist%" -T "title=%title%" -T "album=%albumtitle%" -T "date=%year%" -T "genre=%genre%" -T "tracknumber=%tracknr%" %source%

TOC of the extracted CD

     Track |   Start  |  Length  | Start sector | End sector
    ---------------------------------------------------------
        1  |  0:00.00 |  3:36.61 |         0    |    16260
        2  |  3:36.61 |  3:41.07 |     16261    |    32842
        3  |  7:17.68 |  3:19.28 |     32843    |    47795
        4  | 10:37.21 |  7:09.25 |     47796    |    79995
        5  | 17:46.46 |  2:37.56 |     79996    |    91826
        6  | 20:24.27 |  4:05.02 |     91827    |   110203
        7  | 24:29.29 |  4:25.15 |    110204    |   130093
        8  | 28:54.44 |  3:55.10 |    130094    |   147728
        9  | 32:49.54 |  3:23.71 |    147729    |   163024

Range status and errors

Selected range

     Filename C:\EAC\Bob Dylan - (1971) Bob Dylan's Greatest Hits Vol. II [2013 Audio Fidelity SACD AFZ2 145]\CD1\Bob Dylan - Bob Dylan's Greatest Hits Vol. II [2013 Audio Fidelity SACD AFZ2 145].wav

     Peak level 97.2 %
     Extraction speed 1.8 X
     Range quality 100.0 %
     Test CRC 547E0C57
     Copy CRC 547E0C57
     Copy OK

No errors occurred

AccurateRip summary

Track  1  not present in database
Track  2  not present in database
Track  3  not present in database
Track  4  not present in database
Track  5  not present in database
Track  6  not present in database
Track  7  not present in database
Track  8  not present in database
Track  9  not present in database

None of the tracks are present in the AccurateRip database

End of status report

==== Log checksum FD7CB1F9CFFC7993F16EA4E656FF406EC8024E3784F25D238690D622DADC37EC ====

Код:
-----------------------

DON'T MODIFY THIS FILE

-----------------------

PERFORMER: auCDtect Task Manager, ver. 1.6.0 RC1 build 1.6.0.1
Copyright (c) 2008-2010 y-soft. All rights reserved
http://y-soft.org

ANALYZER: auCDtect: CD records authenticity detector, version 0.8.2
Copyright (c) 2004 Oleg Berngardt. All rights reserved.
Copyright (c) 2004 Alexander Djourik. All rights reserved.

FILE: Bob Dylan - Bob Dylan's Greatest Hits Vol. II [2013 Audio Fidelity SACD AFZ2 145].flac
  Size: 226853144 Hash: 8E650F8AF0580FC7526AC43C46B06008 Accuracy: -m0
  Conclusion: CDDA 99%
  Signature: 5B31AEAEA4DB938ACAEB74D718DFDE81FE0AC26E

Image
Official DR value: DR12
Продолжительность: 00:42:51
Треклист:

01. She Belongs To Me (2:51)
02. All Along The Watchtower (2:33)
03. The Mighty Quinn (Quinn, The Eskimo) (2:48)
04. Just Like Tom Thumb's Blues (5:30)
05. A Hard Rain's A-Gonna Fall (6:53)
06. If Not For You (2:43)
07. It's All Over Now, Baby Blue (4:18)
08. Tomorrow Is A Long Time (3:06)
09. When I Paint My Masterpiece (3:27)
10. I Shall Be Released (3:06)
11. You Ain't Goin' Nowhere (2:48)
12. Down In The Flood (2:48)
Код:

REM GENRE Rock
REM DATE 1971
REM DISCID 990A0A0C
REM COMMENT "ExactAudioCopy v1.0b2"
PERFORMER "Bob Dylan"
TITLE "Bob Dylan's Greatest Hits Vol. II [2013 Audio Fidelity SACD AFZ2 145] 2"
FILE "Bob Dylan - Bob Dylan's Greatest Hits Vol. II [2013 Audio Fidelity SACD AFZ2 145] 2.flac" WAVE
  TRACK 01 AUDIO
    TITLE "She Belongs To Me"
    PERFORMER "Bob Dylan"
    FLAGS DCP
    INDEX 01 00:00:00
  TRACK 02 AUDIO
    TITLE "All Along The Watchtower"
    PERFORMER "Bob Dylan"
    FLAGS DCP
    INDEX 01 02:51:17
  TRACK 03 AUDIO
    TITLE "The Mighty Quinn (Quinn, The Eskimo)"
    PERFORMER "Bob Dylan"
    FLAGS DCP
    INDEX 01 05:24:23
  TRACK 04 AUDIO
    TITLE "Just Like Tom Thumb's Blues"
    PERFORMER "Bob Dylan"
    FLAGS DCP
    INDEX 01 08:12:10
  TRACK 05 AUDIO
    TITLE "A Hard Rain's A-Gonna Fall"
    PERFORMER "Bob Dylan"
    FLAGS DCP
    INDEX 01 13:41:61
  TRACK 06 AUDIO
    TITLE "If Not For You"
    PERFORMER "Bob Dylan"
    FLAGS DCP
    INDEX 01 20:34:62
  TRACK 07 AUDIO
    TITLE "It's All Over Now, Baby Blue"
    PERFORMER "Bob Dylan"
    FLAGS DCP
    INDEX 01 23:17:50
  TRACK 08 AUDIO
    TITLE "Tomorrow Is A Long Time"
    PERFORMER "Bob Dylan"
    FLAGS DCP
    INDEX 01 27:35:73
  TRACK 09 AUDIO
    TITLE "When I Paint My Masterpiece"
    PERFORMER "Bob Dylan"
    FLAGS DCP
    INDEX 01 30:41:67
  TRACK 10 AUDIO
    TITLE "I Shall Be Released"
    PERFORMER "Bob Dylan"
    FLAGS DCP
    INDEX 01 34:08:40
  TRACK 11 AUDIO
    TITLE "You Ain't Goin' Nowhere"
    PERFORMER "Bob Dylan"
    FLAGS DCP
    INDEX 01 37:14:35
  TRACK 12 AUDIO
    TITLE "Down In The Flood"
    PERFORMER "Bob Dylan"
    FLAGS DCP
    INDEX 01 40:02:36

Код:

Exact Audio Copy V1.0 beta 2 from 29. April 2011

EAC extraction logfile from 4. June 2013, 13:18

Bob Dylan / Bob Dylan's Greatest Hits Vol. II [2013 Audio Fidelity SACD AFZ2 145] 2

Used drive  : HL-DT-STDVDRAM GH60N   Adapter: 0  ID: 1

Read mode               : Secure
Utilize accurate stream : Yes
Defeat audio cache      : Yes
Make use of C2 pointers : No

Read offset correction                      : 667
Overread into Lead-In and Lead-Out          : No
Fill up missing offset samples with silence : Yes
Delete leading and trailing silent blocks   : No
Null samples used in CRC calculations       : Yes
Used interface                              : Native Win32 interface for Win NT & 2000

Used output format              : User Defined Encoder
Selected bitrate                : 1024 kBit/s
Quality                         : High
Add ID3 tag                     : No
Command line compressor         : C:\Program Files (x86)\Exact Audio Copy\Flac\flac.exe
Additional command line options : -V -5 -T "artist=%albumartist%" -T "title=%title%" -T "album=%albumtitle%" -T "date=%year%" -T "genre=%genre%" -T "tracknumber=%tracknr%" %source%

TOC of the extracted CD

     Track |   Start  |  Length  | Start sector | End sector
    ---------------------------------------------------------
        1  |  0:00.00 |  2:51.17 |         0    |    12841
        2  |  2:51.17 |  2:33.06 |     12842    |    24322
        3  |  5:24.23 |  2:47.62 |     24323    |    36909
        4  |  8:12.10 |  5:29.51 |     36910    |    61635
        5  | 13:41.61 |  6:53.01 |     61636    |    92611
        6  | 20:34.62 |  2:42.63 |     92612    |   104824
        7  | 23:17.50 |  4:18.23 |    104825    |   124197
        8  | 27:35.73 |  3:05.69 |    124198    |   138141
        9  | 30:41.67 |  3:26.48 |    138142    |   153639
       10  | 34:08.40 |  3:05.70 |    153640    |   167584
       11  | 37:14.35 |  2:48.01 |    167585    |   180185
       12  | 40:02.36 |  2:48.19 |    180186    |   192804

Range status and errors

Selected range

     Filename C:\EAC\Bob Dylan - (1971) Bob Dylan's Greatest Hits Vol. II [2013 Audio Fidelity SACD AFZ2 145]\CD2\Bob Dylan - Bob Dylan's Greatest Hits Vol. II [2013 Audio Fidelity SACD AFZ2 145] 2.wav

     Peak level 96.0 %
     Extraction speed 1.7 X
     Range quality 99.9 %
     Test CRC D009E586
     Copy CRC D009E586
     Copy OK

No errors occurred

AccurateRip summary

Track  1  not present in database
Track  2  not present in database
Track  3  not present in database
Track  4  not present in database
Track  5  not present in database
Track  6  not present in database
Track  7  not present in database
Track  8  not present in database
Track  9  not present in database
Track 10  not present in database
Track 11  not present in database
Track 12  not present in database

None of the tracks are present in the AccurateRip database

End of status report

==== Log checksum 27B1B7250EC65252584B6D0E00523614D30A75E8810813298CC4E9B71F31CFF8 ====

Код:
-----------------------

DON'T MODIFY THIS FILE

-----------------------

PERFORMER: auCDtect Task Manager, ver. 1.6.0 RC1 build 1.6.0.1
Copyright (c) 2008-2010 y-soft. All rights reserved
http://y-soft.org

ANALYZER: auCDtect: CD records authenticity detector, version 0.8.2
Copyright (c) 2004 Oleg Berngardt. All rights reserved.
Copyright (c) 2004 Alexander Djourik. All rights reserved.

FILE: Bob Dylan - Bob Dylan's Greatest Hits Vol. II [2013 Audio Fidelity SACD AFZ2 145] 2.flac
  Size: 260322500 Hash: D85EB2C59A90DD033159D68A72E1A171 Accuracy: -m0
  Conclusion: CDDA 100%
  Signature: D213686BBE1143E612351E184256FCC028BE4230


Время раздачи: с 01:00 до 19:00 МСК


Поглощение/вытеснение
Только с согласия релизера

Bigbeer
[NNM-Club.ru]_Bob Dylan - Bob Dylan's Greatest Hits Vol. II 1971 (2013) FLAC.torrent
 Торрент:   Зарегистрирован
 


Зарегистрируйтесь и скачайте торрент!
 Зарегистрирован:   15 Июн 2013 18:30:21
 Размер:   474 MB  (
 Рейтинг:   4,9 (Голосов: 23)
 Поблагодарили:   84
 Проверка:   Оформление проверено модератором 15 Июн 2013 18:32:27
Как cкачать  ·  Как раздать  ·  Правильно оформить  ·  Поднять ратио!  


Последний раз редактировалось: Bigbeer (03 Авг 2013 20:14:26), всего редактировалось 1 раз
Ru2012


Стаж: 2 года 8 месяцев
Сообщений: 1
Ratio: 5,428
0%

Сообщение 15 Июн 2013 19:28:20  Заголовок сообщения: Ответить с цитатой

Спасибо!!!
олег иванович иванов


Стаж: 4 года 6 месяцев
Сообщений: 2
Ratio: 2,689
95.3%
russia.gif

Сообщение 15 Июн 2013 21:15:20  Заголовок сообщения: Ответить с цитатой

Спасибо!
Показать сообщения:   
Начать новую тему   Ответить на тему    Торрент-трекер NNM-Club -> Rock, Alternative, Punk, Metal -> Rock (Lossless) Часовой пояс: GMT + 4
Страница 1 из 1