Интеллигентный торрент-трекер
canvas not supported
Нас вместе: 4 105 824

Крылья России. Истребители Второй мировой войны (4 серии из 4) (2012) DVDRip


 
 
RSS
Начать новую тему   Ответить на тему    Торрент-трекер NNM-Club -> Документалистика и Телепередачи -> Крылья России
Автор Сообщение
alf62 ®
Стаж: 8 лет 1 мес.
Сообщений: 1261
Ratio: 663,81
Поблагодарили: 73148
100%
russia.gif
Крылья России. Истребители Второй мировой войны (4 серии из 4) (2012) DVBRip
Русское название: Крылья России. Истребители Второй мировой войны (4 серии из 4)
Режиссер / Телекомпания: Андрей Кулясов, Россия, «Крылья России», Телеканал «Звезда»
Год выпуска: 2012
Жанр: Документальный

Описание:
Превосходство в воздухе во время войны – это главная составляющая успеха всей компании. Во время Второй мировой войны это превосходство обеспечивали истребители. Развитию этого вида авиации авиапромышленность развитых стран всегда уделяла особое внимание.
Фильм рассказывает об истребителях Второй мировой войны всех воюющих стан – Германии, Японии, Англии, США и, конечно же, Советского Союза.

Продолжительность: 4 x ~ 00:38:00

Видеокодек: DivX 5
Битрейт видео: ~1646 kbps avg
Размер кадра: 704x400
Качество видео: DVBRip
Аудиокодек: AC3
Битрейт аудио: 192.00 kbps avg

Доп. информация: DVBRip by alf62

Большое СПАСИБО Лeoпoльд за предоставленный первоисточник



Список серий:
Фильм 1
«Мустанги» и «Спитфайры», «Яки» «Лавочкины», «Мессершмитты» и «Зеро». Это название истребителей Второй Мировой войны – войны моторов и скоростей. Мировые державы, опираясь на самые передовые достижения науки и техники, создали грозные боевые машины. Фильм рассказывает об истребителях нового поколения, появившихся в предвоенные годы и вступивших в боевые действия на начальном этапе Второй Мировой.

Фильм 2
Пожар Второй Мировой разгорался. Всё новые и новые государства вступали в эту войну. Это расширило палитру применяемой военной техники, в том числе и самолётов-истребителей. В этом фильме показаны самолёты, поступившие на вооружение авиации Италии и немецких Люфтваффе. Рассказывается и о советских истребителях первого периода Великой Отечественной войны и машинах, которые союзники поставляли в СССР по ленд-лизу.

Фильм 3
В годы войны шло непрерывное совершенствование авиационной техники. Это касалось и самолётов-истребителей. Появились не только новые модификации, но и новые типы таких машин. Для защиты бомбардировщиков, совершавших рейды в глубокий тыл противника, стали применяться истребители сопровождения, обладавшие большой дальностью полёта. В тёмное время суток действовали ночные перехватчики, оснащённые технической новинкой тех лет – радиолокатором.

Фильм 4
Местом боевых действий во время Второй Мировой войны были не только суша, но и бескрайние океанские просторы. Палубная авиация сыграла большую роль в противостоянии Соединённых Штатов и Японии. Во второй половине войны на вооружение поступили машины с ещё более высокими характеристиками. Но век поршневых истребителей заканчивался. Наступала реактивная эра.
MediaInfo:
E:\Торенты\TORRENTS.RU\Истребители Второй мировой войны\Istrebiteli.Vtoroj.mirovoj.vojny.(4.serii.iz.4).2012.DivX.DVBRip.alf62\Istrebiteli.Vtoroj.mirovoj.vojny.(1.serja.iz.4).2012.DivX.DVBRip.alf62.avi
Format : AVI
Format/Info : Audio Video Interleave
File size : 502 MiB
Duration : 37mn 58s
Overall bit rate : 1 849 Kbps
Writing application : VirtualDubMod 1.5.10.3 | www.virtualdub-fr.org || (build 2550/release)
Writing library : VirtualDubMod build 2550/release

Video
ID : 0
Format : MPEG-4 Visual
Format profile : Advanced Simple@L5
Format settings, BVOP : 2
Format settings, QPel : No
Format settings, GMC : No warppoints
Format settings, Matrix : Default (MPEG)
Codec ID : DX50
Codec ID/Hint : DivX 5
Duration : 37mn 58s
Bit rate : 1 647 Kbps
Width : 704 pixels
Height : 400 pixels
Display aspect ratio : 16:9
Frame rate : 25.000 fps
Color space : YUV
Chroma subsampling : 4:2:0
Bit depth : 8 bits
Scan type : Progressive
Compression mode : Lossy
Bits/(Pixel*Frame) : 0.234
Stream size : 447 MiB (89%)
Writing library : XviD 64

Audio
ID : 1
Format : AC-3
Format/Info : Audio Coding 3
Mode extension : CM (complete main)
Format settings, Endianness : Big
Codec ID : 2000
Duration : 37mn 58s
Bit rate mode : Constant
Bit rate : 192 Kbps
Channel(s) : 2 channels
Channel positions : Front: L R
Sampling rate : 48.0 KHz
Bit depth : 16 bits
Compression mode : Lossy
Stream size : 52.1 MiB (10%)
Alignment : Split accross interleaves
Interleave, duration : 40 ms (1.00 video frame)
Interleave, preload duration : 500 ms
Скриншоты:



Еще скриншоты: Время раздачи: 24/7 до 5 скачавших, далее - по возможности
[NNM-Club.ru]_Istrebiteli.Vtoroj.mirovoj.vojny.(4.serii.iz.4).DVBRip.alf62.torrent
 Торрент:   Зарегистрирован
 
Примагнититься
Free Leech
Зарегистрируйтесь и скачайте торрент!
20,4 KB
 Зарегистрирован:   11 Май 2013 00:46:01
 Размер:   1,96 GB  (
 Рейтинг:   4,6 (Голосов: 88)
 Поблагодарили:   327
 Проверка:   Оформление проверено модератором 11 Май 2013 05:10:07
Как cкачать  ·  Как раздать  ·  Правильно оформить  ·  Поднять ратио!  
alinto
Стаж: 7 лет 8 мес.
Сообщений: 69
Ratio: 19,876
Поблагодарили: 579
100%
russia.gif
спасибо)))
vladi​miger​ma​
Стаж: 5 лет 6 мес.
Сообщений: 1016
Ratio: 33,887
89.34%
russia.gif
Большое спасибо.
Wildbambr
Стаж: 5 лет 9 мес.
Сообщений: 3
Ratio: 0,329
51.54%
Ай спасибо! Хорошо! Положите на комод :подмигивание:
rararaa
Стаж: 2 года 5 мес.
Сообщений: 50
Ratio: 2,703
100%
Огромное спасибо!
leyurtim
Стаж: 8 лет 7 мес.
Сообщений: 14
Ratio: 8,002
8.89%
russia.gif
Спасибо! Конечно, одним спасибо обойтись, это круто, поэтому, огромное спасибо!

_________________
moskvoletov
Nurim
Стаж: 7 лет 6 мес.
Сообщений: 390
Ratio: 5,168
100%
Откуда: Almaty
kazakhstan.gif
Смотрел давно, очень хороший цикл!!! Позже заберу.
stari​k_pil​ot​
Стаж: 6 лет 5 мес.
Сообщений: 668
Ratio: 8,054
100%
Откуда: Москаль чисто​пород​ный​
russia.gif
В войну мы даже не слыхали что есть локатор на истребителе да и на остальных тоже.
А запрет на то что самолеты у немцев лучше были так сильны что летчики тупо молчали. И даже опыт ведения боев не передавался. Нельзя было говорить что мол истребитель германии лучше вел себя на вертикалях. А то что стекла у немцев в кабине были в отличие от нас прозрачные я даже не говорю. Я лично знал человека, сидевшего за предложения сделать приборы как у немцев. (информационная окраска) Красный - опасно. Жолтый - внимание. Зеленый - норма. Вот и читали в бою 720мм.рт. ст. А вообще как летчкики говорили, даже не читали. Просто стрелка посредине - нормально.
Показать сообщения:   
Начать новую тему   Ответить на тему    Торрент-трекер NNM-Club -> Документалистика и Телепередачи -> Крылья России Часовой пояс: GMT + 3
Страница 1 из 1