Интеллигентный торрент-трекер
Нас вместе: 3 807 064 | Новости торрент-трекера | Как тут скачивать? | Как раздавать торренты? | Правила оформления

Крылья России. Истребители Второй мировой войны (4 серии из 4) (2012) DVDRip


 
 
RSS
Начать новую тему   Ответить на тему    Торрент-трекер NNM-Club -> Документалистика и Телепередачи -> Крылья России
Предыдущая тема :: Следующая тема  
Автор Сообщение
alf62 ®


Стаж: 6 лет
Сообщений: 458
Ratio: 114,626
Поблагодарили: 25910
100%
russia.gif

Сообщение 11 Май 2013 01:46:01  Заголовок сообщения: Крылья России. Истребители Второй мировой войны (4 серии из 4) (2012) DVDRip Ответить с цитатой

Крылья России. Истребители Второй мировой войны (4 серии из 4) (2012) DVBRip
Русское название: Крылья России. Истребители Второй мировой войны (4 серии из 4)
Режиссер / Телекомпания: Андрей Кулясов, Россия, «Крылья России», Телеканал «Звезда»
Год выпуска: 2012
Жанр: Документальный

Описание:
Превосходство в воздухе во время войны – это главная составляющая успеха всей компании. Во время Второй мировой войны это превосходство обеспечивали истребители. Развитию этого вида авиации авиапромышленность развитых стран всегда уделяла особое внимание.
Фильм рассказывает об истребителях Второй мировой войны всех воюющих стан – Германии, Японии, Англии, США и, конечно же, Советского Союза.

Продолжительность: 4 x ~ 00:38:00

Видеокодек: DivX 5
Битрейт видео: ~1646 kbps avg
Размер кадра: 704x400
Качество видео: DVBRip
Аудиокодек: AC3
Битрейт аудио: 192.00 kbps avg

Доп. информация: DVBRip by alf62

Большое СПАСИБО Лeoпoльд за предоставленный первоисточник



Список серий:
Фильм 1
«Мустанги» и «Спитфайры», «Яки» «Лавочкины», «Мессершмитты» и «Зеро». Это название истребителей Второй Мировой войны – войны моторов и скоростей. Мировые державы, опираясь на самые передовые достижения науки и техники, создали грозные боевые машины. Фильм рассказывает об истребителях нового поколения, появившихся в предвоенные годы и вступивших в боевые действия на начальном этапе Второй Мировой.

Фильм 2
Пожар Второй Мировой разгорался. Всё новые и новые государства вступали в эту войну. Это расширило палитру применяемой военной техники, в том числе и самолётов-истребителей. В этом фильме показаны самолёты, поступившие на вооружение авиации Италии и немецких Люфтваффе. Рассказывается и о советских истребителях первого периода Великой Отечественной войны и машинах, которые союзники поставляли в СССР по ленд-лизу.

Фильм 3
В годы войны шло непрерывное совершенствование авиационной техники. Это касалось и самолётов-истребителей. Появились не только новые модификации, но и новые типы таких машин. Для защиты бомбардировщиков, совершавших рейды в глубокий тыл противника, стали применяться истребители сопровождения, обладавшие большой дальностью полёта. В тёмное время суток действовали ночные перехватчики, оснащённые технической новинкой тех лет – радиолокатором.

Фильм 4
Местом боевых действий во время Второй Мировой войны были не только суша, но и бескрайние океанские просторы. Палубная авиация сыграла большую роль в противостоянии Соединённых Штатов и Японии. Во второй половине войны на вооружение поступили машины с ещё более высокими характеристиками. Но век поршневых истребителей заканчивался. Наступала реактивная эра.
MediaInfo:
E:\Торенты\TORRENTS.RU\Истребители Второй мировой войны\Istrebiteli.Vtoroj.mirovoj.vojny.(4.serii.iz.4).2012.DivX.DVBRip.alf62\Istrebiteli.Vtoroj.mirovoj.vojny.(1.serja.iz.4).2012.DivX.DVBRip.alf62.avi
Format : AVI
Format/Info : Audio Video Interleave
File size : 502 MiB
Duration : 37mn 58s
Overall bit rate : 1 849 Kbps
Writing application : VirtualDubMod 1.5.10.3 | www.virtualdub-fr.org || (build 2550/release)
Writing library : VirtualDubMod build 2550/release

Video
ID : 0
Format : MPEG-4 Visual
Format profile : Advanced Simple@L5
Format settings, BVOP : 2
Format settings, QPel : No
Format settings, GMC : No warppoints
Format settings, Matrix : Default (MPEG)
Codec ID : DX50
Codec ID/Hint : DivX 5
Duration : 37mn 58s
Bit rate : 1 647 Kbps
Width : 704 pixels
Height : 400 pixels
Display aspect ratio : 16:9
Frame rate : 25.000 fps
Color space : YUV
Chroma subsampling : 4:2:0
Bit depth : 8 bits
Scan type : Progressive
Compression mode : Lossy
Bits/(Pixel*Frame) : 0.234
Stream size : 447 MiB (89%)
Writing library : XviD 64

Audio
ID : 1
Format : AC-3
Format/Info : Audio Coding 3
Mode extension : CM (complete main)
Format settings, Endianness : Big
Codec ID : 2000
Duration : 37mn 58s
Bit rate mode : Constant
Bit rate : 192 Kbps
Channel(s) : 2 channels
Channel positions : Front: L R
Sampling rate : 48.0 KHz
Bit depth : 16 bits
Compression mode : Lossy
Stream size : 52.1 MiB (10%)
Alignment : Split accross interleaves
Interleave, duration : 40 ms (1.00 video frame)
Interleave, preload duration : 500 ms
Скриншоты:



Еще скриншоты: Время раздачи: 24/7 до 5 скачавших, далее - по возможности
[NNM-Club.ru]_Istrebiteli.Vtoroj.mirovoj.vojny.(4.serii.iz.4).DVBRip.alf62.torrent
 Торрент:   Зарегистрирован
 
Примагнититься

Зарегистрируйтесь и скачайте торрент!
 Зарегистрирован:   11 Май 2013 01:46:01
 Размер:   1,96 GB  (
 Рейтинг:   4,6 (Голосов: 58)
 Поблагодарили:   210
 Проверка:   Оформление проверено модератором 11 Май 2013 06:10:07
Как cкачать  ·  Как раздать  ·  Правильно оформить  ·  Поднять ратио!  
alinto


Стаж: 5 лет 7 месяцев
Сообщений: 61
Ratio: 15,456
Поблагодарили: 502
100%
russia.gif

Сообщение 11 Май 2013 08:57:13  Заголовок сообщения: Ответить с цитатой

спасибо)))
vladi​miger​ma​


Стаж: 3 года 5 месяцев
Сообщений: 989
Ratio: 30,171
83.68%
russia.gif

Сообщение 11 Май 2013 09:52:29  Заголовок сообщения: Ответить с цитатой

Большое спасибо.
Wildbambr

Стаж: 3 года 7 месяцев
Сообщений: 3
Ratio: 0,734
34.97%

Сообщение 02 Апр 2014 16:25:15  Заголовок сообщения: Ответить с цитатой

Ай спасибо! Хорошо! Положите на комод :подмигивание:
Показать сообщения:   
Начать новую тему   Ответить на тему    Торрент-трекер NNM-Club -> Документалистика и Телепередачи -> Крылья России Часовой пояс: GMT + 4
Страница 1 из 1