Интеллигентный торрент-трекер
Нас вместе: 3 639 378 | Новости торрент-трекера | Как тут скачивать? | Как раздавать торренты? | Правила оформления

Скачать бесплатно торрент Antonio Chainho - A Guitarra e outras mulheres (1998) [FLAC|Lossless]<Instrumental Guitar, Fado> torrent download


 
 
RSS
Начать новую тему   Ответить на тему    Торрент-трекер NNM-Club -> Other Styles -> Instrumental (Lossless)
Предыдущая тема :: Следующая тема 
Автор Сообщение
PlaNed ®


Стаж: 2 года 6 мес.
Сообщений: 1283
Ratio: 9979,072
Раздал: 40,08 TB
Поблагодарили: 52061
100%
Откуда: The Net!
bulgaria.gif

Сообщение 21 Апр 2013 12:31:12  Заголовок сообщения: Antonio Chainho - A Guitarra e outras mulheres (1998) [FLAC|Lossless]<Instrumental Guitar, Fado> Ответить с цитатой

Antonio Chainho - A Guitarra e outras mulheres (1998)
Год: 1998
Жанр: Instrumental Guitar, Fado
Издатель: Movieplay Portuguesa {MOV 30.398}
Страна изготовитель: Portugal

Продолжительность: 00:37:26

Кодек: FLAC
Битрейт: Lossless
Источник: Web

Трек лист:
01. A Sombra (Fado Nocturno) {with Teresa Salgueiro} [04:02]
02. Juntei-me a Voz Verdadeira {with Elba Ramalho} [03:20]
03. Percursos [01:37]
04. Nossa Musica {with Nina Miranda} [03:49]
05. Guitarra Sem Fronteiras [03:08]
06. Fadinho Simples {with Marta Dias} [04:13]
07. Valsinha Mandada [03:54]
08. Tenho Ruas No Meu Peito {with Sofia Varela} [02:48]
09. Fado da Desistencia {with Filipa Pais} [03:20]
10. Rotas Maritimas [03:18]
11. Fado da Boa Sina {with Teresa Salgueiro} [02:31]
12. Improviso em Mi Menor [01:26]
Код:

EAC extraction logfile from 16. September 2007, 0:13 for CD
Antonio Chainho / A GUITARRA e outras mulheres

Used drive  : HL-DT-STDVD-ROM GDR8161B   Adapter: 1  ID: 1
Read mode   : Secure with NO C2, accurate stream, disable cache
Read offset correction : 102
Overread into Lead-In and Lead-Out : No

Used output format : C:\Archivos de programa\FLAC\flac.exe   (User Defined Encoder)
                     128 kBit/s
                     Additional command line options : "-hm -w "Track=%n" -w "Title=%t" -w "Artist=%a" -w "Album=%g" -w "Date=%y" -w "Genre=%m" %s"

Other options      :
    Fill up missing offset samples with silence : Yes
    Delete leading and trailing silent blocks : No
    Installed external ASPI interface

Track  1
     Filename C:\Converted Music\Antonio Chainho - A GUITARRA e outras mulheres (1998) [FLAC]\01 - A Sombra (Fado Nocturno) - Teresa Salgueiro.wav

     Pre-gap length  0:00:02.00

     Peak level 99.8 %
     Track quality 100.0 %
     Test CRC C8503D1A
     Copy CRC C8503D1A
     Copy OK

Track  2
     Filename C:\Converted Music\Antonio Chainho - A GUITARRA e outras mulheres (1998) [FLAC]\02 - Juntei-me a Voz Verdadeira - Elba Ramalho.wav

     Peak level 99.8 %
     Track quality 100.0 %
     Test CRC AA5A0F68
     Copy CRC AA5A0F68
     Copy OK

Track  3
     Filename C:\Converted Music\Antonio Chainho - A GUITARRA e outras mulheres (1998) [FLAC]\03 - Percursos.wav

     Pre-gap length  0:00:01.40

     Peak level 99.8 %
     Track quality 100.0 %
     Test CRC 5A627682
     Copy CRC 5A627682
     Copy OK

Track  4
     Filename C:\Converted Music\Antonio Chainho - A GUITARRA e outras mulheres (1998) [FLAC]\04 - Nossa Musica - Nina Miranda.wav

     Pre-gap length  0:00:02.53

     Peak level 99.8 %
     Track quality 99.9 %
     Test CRC E2ACD0C9
     Copy CRC E2ACD0C9
     Copy OK

Track  5
     Filename C:\Converted Music\Antonio Chainho - A GUITARRA e outras mulheres (1998) [FLAC]\05 - Guitarra Sem Fronteiras.wav

     Peak level 99.8 %
     Track quality 100.0 %
     Test CRC 923D2CA4
     Copy CRC 923D2CA4
     Copy OK

Track  6
     Filename C:\Converted Music\Antonio Chainho - A GUITARRA e outras mulheres (1998) [FLAC]\06 - Fadinho Simples - Marta Dias.wav

     Peak level 99.8 %
     Track quality 100.0 %
     Test CRC ECA22777
     Copy CRC ECA22777
     Copy OK

Track  7
     Filename C:\Converted Music\Antonio Chainho - A GUITARRA e outras mulheres (1998) [FLAC]\07 - Valsinha Mandada.wav

     Pre-gap length  0:00:01.73

     Peak level 99.8 %
     Track quality 100.0 %
     Test CRC 54DEAC09
     Copy CRC 54DEAC09
     Copy OK

Track  8
     Filename C:\Converted Music\Antonio Chainho - A GUITARRA e outras mulheres (1998) [FLAC]\08 - Tenho Ruas No Meu Peito - Sofia Varela.wav

     Pre-gap length  0:00:01.70

     Peak level 99.8 %
     Track quality 100.0 %
     Test CRC 6F708CA7
     Copy CRC 6F708CA7
     Copy OK

Track  9
     Filename C:\Converted Music\Antonio Chainho - A GUITARRA e outras mulheres (1998) [FLAC]\09 - Fado da Desistencia - Filipa Pais.wav

     Peak level 99.8 %
     Track quality 99.9 %
     Test CRC DC61D1FF
     Copy CRC DC61D1FF
     Copy OK

Track 10
     Filename C:\Converted Music\Antonio Chainho - A GUITARRA e outras mulheres (1998) [FLAC]\10 - Rotas Maritimas.wav

     Pre-gap length  0:00:01.36

     Peak level 99.8 %
     Track quality 100.0 %
     Test CRC 5E308ADA
     Copy CRC 5E308ADA
     Copy OK

Track 11
     Filename C:\Converted Music\Antonio Chainho - A GUITARRA e outras mulheres (1998) [FLAC]\11 - Fado da Boa Sina - Teresa Salgueiro.wav

     Peak level 99.8 %
     Track quality 100.0 %
     Test CRC 1157DD81
     Copy CRC 1157DD81
     Copy OK

Track 12
     Filename C:\Converted Music\Antonio Chainho - A GUITARRA e outras mulheres (1998) [FLAC]\12 - Improviso em Mi Menor.wav

     Pre-gap length  0:00:02.70

     Peak level 71.9 %
     Track quality 100.0 %
     Test CRC 16661499
     Copy CRC 16661499
     Copy OK

No errors occured

End of status report
Код:

-----------------------

DON'T MODIFY THIS FILE

-----------------------

PERFORMER: auCDtect Task Manager, ver. 1.5.1RC6 build 1.5.1.7
Copyright (c) 2008-2010 y-soft. All rights reserved
http://y-soft.org

ANALYZER: auCDtect: CD records authenticity detector, version 0.8.2
Copyright (c) 2004 Oleg Berngardt. All rights reserved.
Copyright (c) 2004 Alexander Djourik. All rights reserved.

FILE: 12 - Improviso em Mi Menor.flac
  Size: 6486400 Hash: C852AD36D1758E562D6F32926D802A63 Accuracy: -m0
  Conclusion: CDDA 99%
  Signature: 52C46EE3BFDE9AB286EF0D568D65BFAC9595E465
FILE: 11 - Fado da Boa Sina - Teresa Salgueiro.flac
  Size: 14671466 Hash: B75298EDB491ADBE7B988016FBA087E7 Accuracy: -m0
  Conclusion: CDDA 100%
  Signature: 8D1BD0C2928605BDF0C36FDF613B538AED70B84D
FILE: 10 - Rotas Maritimas.flac
  Size: 19544603 Hash: C2CB4CE04959849407C36EB05C4F5A6B Accuracy: -m0
  Conclusion: CDDA 100%
  Signature: 96C45CDC7D4D2A38B00DDA61897239258F37BE15
FILE: 09 - Fado da Desistencia - Filipa Pais.flac
  Size: 19814717 Hash: 9B01A1F94B4DB10888DC48C01F1B3A90 Accuracy: -m0
  Conclusion: CDDA 99%
  Signature: 43315E6971BD8EE96A0C074E7D432AC5C6D009A9
FILE: 08 - Tenho Ruas No Meu Peito - Sofia Varela.flac
  Size: 17001570 Hash: 03ADC5DFA84C61D4DCC6CF8B37CF4DC0 Accuracy: -m0
  Conclusion: CDDA 100%
  Signature: 415B8A59930F5C8724934251439E5CBC803C2E46
FILE: 07 - Valsinha Mandada.flac
  Size: 24169635 Hash: 555C0CB1C0CC5870010F7342E596455F Accuracy: -m0
  Conclusion: CDDA 100%
  Signature: 51163E1ABA7A0A0E354DF17643FFEE3F21FBFA42
FILE: 06 - Fadinho Simples - Marta Dias.flac
  Size: 24161808 Hash: B60E543324F83DDC4EDF4510897B3B44 Accuracy: -m0
  Conclusion: CDDA 100%
  Signature: 8A98781B4C91218BA8C1FD93BC5417A5A7B7CEFA
FILE: 05 - Guitarra Sem Fronteiras.flac
  Size: 17907998 Hash: 31D799BD865DCDCC3188859AB967F9B3 Accuracy: -m0
  Conclusion: CDDA 100%
  Signature: 2122721822458C1C0BAE9E41B1CBC879EA454F22
FILE: 04 - Nossa Musica - Nina Miranda.flac
  Size: 21453054 Hash: CDB21726A609420B4BDF244976A4046F Accuracy: -m0
  Conclusion: CDDA 99%
  Signature: C5618327A40A40A8ADB5B89292A6DB74287F9EF6
FILE: 03 - Percursos.flac
  Size: 8629509 Hash: 8027DB9375FF7190A674FEEA047B3443 Accuracy: -m0
  Conclusion: CDDA 99%
  Signature: 90E3838B9B7C3FF6359EB99AAB908854A5001FCF
FILE: 02 - Juntei-me a Voz Verdadeira - Elba Ramalho.flac
  Size: 19448997 Hash: 5BC26103970BCF67034C85C7C49BBBDE Accuracy: -m0
  Conclusion: CDDA 99%
  Signature: 8C84172E86EF374FA2285D56449D08FB106A1138
FILE: 01 - A Sombra (Fado Nocturno) - Teresa Salgueiro.flac
  Size: 24407994 Hash: CF631C8E2DB6129F4617FF7F6AF19045 Accuracy: -m0
  Conclusion: CDDA 100%
  Signature: F22C63AA66C9E3A8815FD378508A88C270075308
Время раздачи: 24/7


Поглощение/вытеснение
Только с согласия релизера

Beijing65
[NNM-Club.ru]_Antonio Chainho - A Guitarra e outras mulheres (1998).torrent
 Торрент:   Зарегистрирован
 


Зарегистрируйтесь и скачайте торрент!
 Зарегистрирован:   21 Апр 2013 12:31:12
 Размер:   211 MB  (
 Рейтинг:   4,8 (Голосов: 10)
 Поблагодарили:   40
 Проверка:   Оформление проверено модератором 21 Апр 2013 14:22:32
Как cкачать  ·  Как раздать  ·  Правильно оформить  ·  Поднять ратио!  
Показать сообщения:   
Начать новую тему   Ответить на тему    Торрент-трекер NNM-Club -> Other Styles -> Instrumental (Lossless) Часовой пояс: GMT + 4
Страница 1 из 1