Интеллигентный торрент-трекер
Нас вместе: 3 819 610 | Новости торрент-трекера | Как тут скачивать? | Как раздавать торренты? | Правила оформления

Малер на кушетке / Mahler auf der Couch (2010) DVDRip


 
 
RSS
Начать новую тему   Ответить на тему    Торрент-трекер NNM-Club -> Зарубежное кино -> Зарубежные Фильмы (HD*Rip/LQ, DVDRip, SATRip, VHSRip)
Предыдущая тема :: Следующая тема  
Автор Сообщение
ducha65 ®


Стаж: 2 года 5 месяцев
Сообщений: 490
Ratio: 553,119
Поблагодарили: 68923
100%
Откуда: из народа
russia.gif

Сообщение 19 Апр 2013 22:44:39  Заголовок сообщения: Малер на кушетке / Mahler auf der Couch (2010) DVDRip Ответить с цитатой

Малер на кушетке / Mahler auf der Couch (2010) DVDRip
Русское название: Малер на кушетке
Оригинальное название: Mahler auf der Couch
Год выпуска: 2010
Производство: Германия, Австрия / ARD Degeto Film, Bayerischer Rundfunk, Bioskop Film
Жанр: Драма, Биография

Описание фильма:
Историческая драма, в центре которой — запутанные перипетии из жизни венской богемы. Молодая жена и муза знаменитого композитора и дирижера Густава Малера, Альма, влюбляется в архитектора Вальтера Гропиуса, на 5 лет ее моложе. Разбитый горем и ревностью Малер ищет решение семейных проблем на кушетке доктора Фрейда.

Режиссер: Феликс О. Адлон, Перси Адлон
Актеры: Йоханнес Зильбершнайдер, Карл Марковиц, Фридрих Мюке, Ева Маттес, Лена Штольце, Карл Фишер, Матиас Франц Стейн, Макс Майер

Продолжительность: 01:37:17
Перевод: Многоголосый закадровый, профессиональный



Дата мировой премьеры: 24 июня 2010

Видеокодек: Xvid
Битрейт видео: ~1754 kb/s
Размер кадра: 720x384
Качество видео: DVDRip
Аудио 1: АС3, 192kb/s, 2.0, Русский
Аудио 2: АС3, 192kb/s, 2.0, Немецкий
Общее
Полное имя : C:\Users\Игорь\Downloads\Торренты\Малер на кушетке.2010.DVDRip.avi
Формат : AVI
Формат/Информация : Audio Video Interleave
Размер файла : 1,46 Гбайт
Продолжительность : 1 ч. 37 м.
Общий поток : 2152 Кбит/сек
Программа кодирования : VirtualDubMod 1.5.10.2 (build 2540/release)
Библиотека кодирования : VirtualDubMod build 2540/release

Видео
Идентификатор : 0
Формат : MPEG-4 Visual
Профиль формата : Advanced Simple@L5
Параметр BVOP формата : 2
Параметр QPel формата : Нет
Параметр GMC формата : Без точки перехода
Параметр матрицы формата : Default (MPEG)
Идентификатор кодека : XVID
Идентификатор кодека/Подсказка : XviD
Продолжительность : 1 ч. 37 м.
Битрейт : 1754 Кбит/сек
Ширина : 720 пикселей
Высота : 384 пикселя
Соотношение сторон : 1,85:1
Частота кадров : 25,000 кадров/сек
Цветовое пространство : YUV
Субдискретизация насыщенности : 4:2:0
Битовая глубина : 8 бит
Тип развёртки : Прогрессивная
Метод сжатия : С потерями
Бит/(Пиксели*Кадры) : 0.254
Размер потока : 1,19 Гбайт (81%)
Библиотека кодирования : XviD 1.2.1 (UTC 2008-12-04)

Аудио #1
Идентификатор : 1
Формат : AC-3
Формат/Информация : Audio Coding 3
Расширение режима : CM (complete main)
Параметр Endianness формата : Big
Идентификатор кодека : 2000
Продолжительность : 1 ч. 37 м.
Вид битрейта : Постоянный
Битрейт : 192 Кбит/сек
Каналы : 2 канала
Расположение каналов : Front: L R
Частота : 48,0 КГц
Битовая глубина : 16 бит
Метод сжатия : С потерями
Размер потока : 134 Мбайт (9%)
Выравнивание : Разделение по промежуткам
Продолжительность промежутка : 40 мс. (1,00 видеокадр)
Время предзагрузки промежутка : 500 мс.

Аудио #2
Идентификатор : 2
Формат : AC-3
Формат/Информация : Audio Coding 3
Расширение режима : CM (complete main)
Параметр Endianness формата : Big
Идентификатор кодека : 2000
Продолжительность : 1 ч. 37 м.
Вид битрейта : Постоянный
Битрейт : 192 Кбит/сек
Каналы : 2 канала
Расположение каналов : Front: L R
Частота : 48,0 КГц
Битовая глубина : 16 бит
Метод сжатия : С потерями
Размер потока : 134 Мбайт (9%)
Выравнивание : Разделение по промежуткам
Продолжительность промежутка : 40 мс. (1,00 видеокадр)
Время предзагрузки промежутка : 500 мс.
Скриншоты:


Время раздачи: с 10.00 до 23.00
[NNM-Club.ru]_Maler na kushetke.2010.DVDRip.avi.torrent
 Торрент:   Зарегистрирован
 
Примагнититься

Зарегистрируйтесь и скачайте торрент!
 Зарегистрирован:   19 Апр 2013 22:44:39
 Размер:   1,46 GB  (
 Рейтинг:   4,9 (Голосов: 11)
 Поблагодарили:   50
 Проверка:   Оформление проверено модератором 21 Апр 2013 08:21:50
Как cкачать  ·  Как раздать  ·  Правильно оформить  ·  Поднять ратио!  
Показать сообщения:   
Начать новую тему   Ответить на тему    Торрент-трекер NNM-Club -> Зарубежное кино -> Зарубежные Фильмы (HD*Rip/LQ, DVDRip, SATRip, VHSRip) Часовой пояс: GMT + 4
Страница 1 из 1