Классический форум-трекер
canvas not supported
Нас вместе: 4 068 675

Охотники на гангстеров / Gangster Squad (2013) HDRip


 
 
RSS
Начать новую тему   Ответить на тему    Торрент-трекер NNM-Club -> Архив торрентов -> Архив Видео
Автор Сообщение
Zov72 ®
Стаж: 9 лет 1 мес.
Сообщений: 4743
Ratio: 110,504
Поблагодарили: 594566
100%
Откуда: Вольный кабан
wild_hogs.gif
Охотники на гангстеров / Gangster Squad (2013) HDRip
«Ни имён. Ни закона. Ни жалости.»

Русское название: Охотники на гангстеров
Оригинальное название: Gangster Squad
Год выпуска: 2013
Производство: США | Langley Park Productions, Lin Pictures, Village Roadshow Pictures
Жанр: Боевик, Триллер, Драма, Криминал
Перевод: Дублированный (iTunes Russia)
Субтитры: Отсутствуют

Дата мировой премьеры: 9 января 2013
Дата российской премьеры: 24 января 2013, «Каро-Премьер»
Дата выхода DVD релиза: 30 апреля 2013, «CP Дистрибуция»
Дата выхода Blu-Ray релиза: 30 апреля 2013, «CP Дистрибуция»

Режиссер: Рубен Флейшер
Продюсер: Дэн Лин, Кевин МакКормик, Майкл Тадросс
Актеры: Джош Бролин, Райан Гослинг, Ник Нолти, Эмма Стоун, Энтони Маки, Джованни Рибизи, Майкл Пенья, Роберт Патрик, Шон Пенн, Холт МакКэллани

Описание фильма:
Лос-Анджелес, 1949 год. Уроженец Бруклина, жестокий главарь банды Микки Коэн держит город в ежовых рукавицах, собирая «грязные» деньги от торговли наркотиками, оружием и проституции, и — если все пойдет, как надо, — к Западу от Чикаго мышь не пискнет без его ведома. Защищают его не только его же головорезы, но и находящиеся у него «на крючке» полиция и политики. Этого хватит, чтобы запугать даже самых смелых, закаленных улицей копов… кроме, пожалуй, небольшой тайной группы сотрудников полицейского департамента Лос-Анджелеса во главе с сержантом Джоном О’Мара и Джерри Вутерсом, которые объединились, чтобы попытаться уничтожить преступный мир Коэна.

Продолжительность: 01:52:54
Качество видео: HDRip

Видеокодек: Xvid
Битрейт видео: ~ 1343 Кбит/сек
Размер кадра: 720x304 (2.37:1),
Аудио: AC3 384 Кбит/сек (6ch)

Сэмпл: Скачать
Код:

Общее
Полное имя                               : E:\Загрузка\Ohotniki.na.gangsterov.2013.D.HDRip.1400MB.avi
Формат                                   : AVI
Формат/Информация                        : Audio Video Interleave
Размер файла                             : 1,37 Гбайт
Продолжительность                        : 1 ч. 52 м.
Общий поток                              : 1737 Кбит/сек
Программа кодирования                    : VirtualDubMod 1.5.10.3 | www.virtualdub-fr.org || (build 2550/release)
Библиотека кодирования                   : VirtualDubMod build 2550/release

Видео
Идентификатор                            : 0
Формат                                   : MPEG-4 Visual
Профиль формата                          : Advanced Simple@L5
Параметр BVOP формата                    : 2
Параметр QPel формата                    : Нет
Параметр GMC формата                     : Без точки перехода
Параметр матрицы формата                 : Default (MPEG)
Идентификатор кодека                     : XVID
Идентификатор кодека/Подсказка           : XviD
Продолжительность                        : 1 ч. 52 м.
Битрейт                                  : 1344 Кбит/сек
Ширина                                   : 720 пикселей
Высота                                   : 304 пикселя
Соотношение сторон                       : 2,35:1
Частота кадров                           : 23,976 кадра/сек
Цветовое пространство                    : YUV
Субдискретизация насыщенности            : 4:2:0
Битовая глубина                          : 8 бит
Тип развёртки                            : Прогрессивная
Метод сжатия                             : С потерями
Бит/(Пиксели*Кадры)                      : 0.256
Размер потока                            : 1,06 Гбайт (77%)
Библиотека кодирования                   : XviD 1.2.1 (UTC 2008-12-04)

Аудио
Идентификатор                            : 1
Формат                                   : AC-3
Формат/Информация                        : Audio Coding 3
Расширение режима                        : CM (complete main)
Параметр Endianness формата              : Big
Идентификатор кодека                     : 2000
Продолжительность                        : 1 ч. 52 м.
Вид битрейта                             : Постоянный
Битрейт                                  : 384 Кбит/сек
Каналы                                   : 6 каналов
Расположение каналов                     : Front: L C R, Side: L R, LFE
Частота                                  : 48,0 КГц
Битовая глубина                          : 16 бит
Метод сжатия                             : С потерями
Размер потока                            : 310 Мбайт (22%)
Выравнивание                             : Разделение по промежуткам
Продолжительность промежутка             : 42  мс. (1,00 видеокадр)
Время предзагрузки промежутка            : 500  мс.

Скриншоты:



Приятного просмотра
и не забываем говорить СПАСИБО...

Время раздачи: 24/7
до 15 скачавших..
[NNM-Club.ru]_Ohotniki.na.gangsterov.2013.D.HDRip.1400MB.avi.torrent
 Торрент:   Зарегистрирован
 
Зарегистрируйтесь и скачайте торрент!
14,2 KB
Free Leech
Примагнититься
 Зарегистрирован:   05 Апр 2013 09:03:02
 Размер:   1,37 GB  (
 Рейтинг:   4,7 (Голосов: 99)
 Поблагодарили:   476
 Проверка:   Внимание! Оформление не проверено модератором!
Как cкачать  ·  Как раздать  ·  Правильно оформить  ·  Поднять ратио!  
Lelya_K
Стаж: 8 лет
Сообщений: 5538
Ratio: 7169,418
Раздал: 109,3 TB
Поблагодарили: 616666
100%
Откуда: Московская область
nnm-club.gif
Zov72
Сэмпл на английском языке.
Пожалуйста, сравнение скриншотов с аналогичной раздачей.
Охотники на гангстеров / Gangster Squad (2013) WEB-DLRip
Borvas
Стаж: 7 лет 3 мес.
Сообщений: 106
Ratio: 7,309
Поблагодарили: 62
100%
jamaica.gif
Сюжет слегка наивен), но фильм смотрится хорошо.Спасибо!
ANGEL-LV
Стаж: 8 лет 5 мес.
Сообщений: 14
Ratio: 1,7
100%
Когда смотрела вроде было интересно, но сейчас даже не могу вспомнить о чём сей "шедевр" :незнает:
Показать сообщения:   
Начать новую тему   Ответить на тему    Торрент-трекер NNM-Club -> Архив торрентов -> Архив Видео Часовой пояс: GMT + 3
Страница 1 из 1