Классический форум-трекер
canvas not supported
Нас вместе: 4 068 745

Охота / Jagten (2012) BDRip


Страницы:  1, 2  След. 
 
RSS
Начать новую тему   Ответить на тему    Торрент-трекер NNM-Club -> Зарубежное кино -> Зарубежные Фильмы (HD*Rip/LQ, DVDRip, SATRip, VHSRip)
Автор Сообщение
Zov72 ®
Стаж: 9 лет 1 мес.
Сообщений: 4743
Ratio: 110,504
Поблагодарили: 594551
100%
Откуда: Вольный кабан
wild_hogs.gif
Охота / Jagten (2012) BDRip
Русское название: Охота
Оригинальное название: Jagten
Год выпуска: 2012
Производство: Дания
Жанр: Драма

Перевод: Многоголосый закадровый (Лицензия)
Субтитры: Отсутствуют

Режиссер: Томас Винтерберг
Актеры: Мадс Миккельсен, Томас Бо Ларсен, Анника Веддеркопп, Лассе Фогельстрём, Суссе Уолд, Анне Луизе Хассинг, Ларс Ранте, Александра Рапапорт, Оле Дюпон, Рикке Бергманн

Описание фильма:
После мучительного развода 40-летний Лукас находит новую подругу, новую работу и стремится восстановить отношения со своим сыном-подростком Маркусом. Но ему что-то мешает… Что-то, казалось бы, незначительное. Замечание, сделанное между прочим. Мелкая ложь. И вот накануне Рождества, когда падает снег и зажигаются огни на елке, ложь разрастается и проникает повсюду, как невидимый вирус. Растет недоверие, и все вокруг оказываются в состоянии коллективной истерии. Лукас вынужден бороться за свою жизнь и достоинство.

MPAA: R - Лицам до 17 лет обязательно присутствие взрослого



Дата мировой премьеры: 20 мая 2012
Дата российской премьеры: 21 февраля 2013, «Русский репортаж»
Дата выхода DVD релиза: 1 апреля 2013, «Новый Диск»

Продолжительность: 01:55:45
Качество видео: BDRip

Видеокодек: XviD
Видео: 720x304 (2.35:1), ~ 1351 Кбит/с
Аудио: AC3 5.1, 448 Kbps, CBR

Сэмпл: Скачать
Код:

Общее
Полное имя                               : E:\Загрузка\The.Hunt.2012.BDRip_MVO.avi
Формат                                   : AVI
Формат/Информация                        : Audio Video Interleave
Размер файла                             : 1,46 Гбайт
Продолжительность                        : 1 ч. 55 м.
Общий поток                              : 1809 Кбит/сек
Программа кодирования                    : VirtualDubMod 1.5.10.3 | www.virtualdub-fr.org || (build 2550/release)
Библиотека кодирования                   : VirtualDubMod build 2550/release

Видео
Идентификатор                            : 0
Формат                                   : MPEG-4 Visual
Профиль формата                          : Advanced Simple@L5
Параметр BVOP формата                    : 2
Параметр QPel формата                    : Нет
Параметр GMC формата                     : Без точки перехода
Параметр матрицы формата                 : Выборочная
Идентификатор кодека                     : XVID
Идентификатор кодека/Подсказка           : XviD
Продолжительность                        : 1 ч. 55 м.
Битрейт                                  : 1352 Кбит/сек
Ширина                                   : 720 пикселей
Высота                                   : 304 пикселя
Соотношение сторон                       : 2,35:1
Частота кадров                           : 24,000 кадра/сек
Цветовое пространство                    : YUV
Субдискретизация насыщенности            : 4:2:0
Битовая глубина                          : 8 бит
Тип развёртки                            : Прогрессивная
Метод сжатия                             : С потерями
Бит/(Пиксели*Кадры)                      : 0.257
Размер потока                            : 1,09 Гбайт (75%)
Библиотека кодирования                   : XviD 65

Аудио
Идентификатор                            : 1
Формат                                   : AC-3
Формат/Информация                        : Audio Coding 3
Расширение режима                        : CM (complete main)
Параметр Endianness формата              : Big
Идентификатор кодека                     : 2000
Продолжительность                        : 1 ч. 55 м.
Вид битрейта                             : Постоянный
Битрейт                                  : 448 Кбит/сек
Каналы                                   : 6 каналов
Расположение каналов                     : Front: L C R, Side: L R, LFE
Частота                                  : 48,0 КГц
Битовая глубина                          : 16 бит
Метод сжатия                             : С потерями
Размер потока                            : 370 Мбайт (25%)
Выравнивание                             : Разделение по промежуткам
Продолжительность промежутка             : 42  мс. (1,00 видеокадр)
Время предзагрузки промежутка            : 500  мс.

Скриншоты:



Приятного просмотра
и не забываем говорить СПАСИБО...

Время раздачи: 24/7
до 15 скачавших..
[NNM-Club.ru]_The.Hunt.2012.BDRip_MVO.avi.torrent
 Торрент: Платиновая раздача  Зарегистрирован
 
Скачать


Примагнититься
 Зарегистрирован:   05 Апр 2013 08:00:25
 Размер:   1,46 GB  (
 Рейтинг:   4,3 (Голосов: 54)
 Поблагодарили:   361
 Проверка:   Оформление проверено модератором 06 Апр 2013 07:17:45
Как cкачать  ·  Как раздать  ·  Правильно оформить  ·  Поднять ратио!  
gazumba06
Стаж: 10 лет
Сообщений: 7
Ratio: 24,631
100%
Откуда: Poltava
ukraine.gif
кто-что напишет про кинулю???
Hokking
Стаж: 7 лет 1 мес.
Сообщений: 171
Ratio: 3,775
18.68%
Откуда: город герой Киев
ukraine.gif
gazumba06 писал(а): Перейти к сообщению
кто-что напишет про кинулю???


http://nnm-club.me/forum/viewtopic.php?t=632980

_________________
Фундаментальная тяга человечества к знанию - достаточное основание для продолжения поисков.
Стивен Хокинг
Zakaryan
Стаж: 8 лет 2 мес.
Сообщений: 157
Ratio: 23,283
Поблагодарили: 4
39.22%
ussr.gif
Организатора детского кружка / воспитателя обвиняют в секАс.домогании к ребенку исходя из бредовых фантазий дитя........До того как все проясняется, европейское быдло маленького городка с промытыми мозгами из-за скапившихся сплетен, успевает понаехать на бедолагу воспитателя......Фильм на вечер !!! Замечательно

_________________
...Потомков 3-ех сыновей продолжателя человеческого рода - Ноя; Сима, Иафета и Хама разделили через языки в Вавилоне, лишь Айк Наапет, прародитель армянского народа, отказавшись в постройке башни сохранил самый первый язык и вернулся домой......................Все придут за очищением на прародину - к Арарату...
DelAlex
Стаж: 8 лет 9 мес.
Сообщений: 1
Ratio: 53,482
100%
russia.gif
Хорошие рейтинги. Надо посмотреть.
beat_a
Стаж: 6 лет 10 мес.
Сообщений: 7
Ratio: 4,373
0.97%
russia.gif
Отличный фильм,всем советую. Мадс Миккельсен замечательный актёр.
torgunako
Стаж: 9 лет 1 мес.
Сообщений: 536
Ratio: 7,45
39.62%
Откуда: откуда и все
ussr.gif
да,да и актёр классный,и сюжет затянул,смотрел как говориться на одном дыхании,thx
з.ы. сам побегал по ментовкм и прокуратурам,но только из-за взрослых ипливых шалав,знаю как оно в этой шкуре,так-что фильм актуальный и поучительный
genvol
Стаж: 7 лет 8 мес.
Сообщений: 655
Ratio: 0,449
100%
Откуда: Vilnius
lithuania.gif
:цветок: Фильм хороший стоит посмотреть!
iopterst
Стаж: 10 лет 7 мес.
Сообщений: 2
Ratio: 0,616
100%
russia.gif
Крутой фильм. Во время просмотра не отпускает даже чаю попить
AndriyukAV100
Стаж: 9 лет 2 мес.
Сообщений: 95
Ratio: 3,407
7.96%
Почему почти все люди в кадре такие страшные :D
esquire001
Стаж: 6 лет 4 мес.
Сообщений: 255
Ratio: 0,981
100%
kazakhstan.gif
Фильм хороший, но все равно европейцы как то тупо снимают
Pugachoff
Стаж: 8 лет
Сообщений: 217
Ratio: 0,783
2.61%
russia.gif
Тупо снимают в России...
Yura-CCCP-
Стаж: 7 лет 8 мес.
Сообщений: 114
Ratio: 3,5
47.48%
Откуда: Банья Лука
serbia.gif
Pugachoff писал(а): Перейти к сообщению
Тупо снимают в России...
Это там где ты живешь? :смех:
kdMustDie
Стаж: 9 лет 7 мес.
Сообщений: 20
Ratio: 3,659
100%
russia.gif
Хороший фильм. Спасибо за раздачу.
velesweb
 
Стаж: 7 лет 5 мес.
Сообщений: 339
Ratio: 0,765
100%
Откуда: СПб
russia.gif
Отличный фильм с замечательным актером в главной роли.

P.S. Всё-таки умеют скандинавы снимать кино. Ни в какое сравнение с нашими блевотными сериальчиками)
Показать сообщения:   
Начать новую тему   Ответить на тему    Торрент-трекер NNM-Club -> Зарубежное кино -> Зарубежные Фильмы (HD*Rip/LQ, DVDRip, SATRip, VHSRip) Часовой пояс: GMT + 3
Страницы:  1, 2  След.
Страница 1 из 2