Классический форум-трекер
canvas not supported
Нас вместе: 4 069 043

Ангел-хранитель / Schutzengel (2012) HDRip [Line]


 
 
RSS
Начать новую тему   Ответить на тему    Торрент-трекер NNM-Club -> Архив торрентов -> Архив Видео
Автор Сообщение
Zov72 ®
Стаж: 9 лет 2 мес.
Сообщений: 4743
Ratio: 110,504
Поблагодарили: 594644
100%
Откуда: Вольный кабан
wild_hogs.gif
Ангел-хранитель / Schutzengel (2012) HDRip
Русское название: Ангел-хранитель
Оригинальное название: Schutzengel
Год выпуска: 2012
Производство: Германия / barefoot films, Warner Bros. Film Productions Germany
Жанр: Триллер
Перевод: Дублированный [чистый звук]
Субтитры: Отсутствуют

Дата мировой премьеры: 24 июня 2012
Дата российской премьеры: 7 марта 2013, «20 Век Фокс СНГ», «A Company»
Дата выхода DVD релиза: 22 апреля 2013, «Новый Диск»

Режиссер: Тиль Швайгер
Продюсер: Пол Морис, Тиль Швайгер, Томас Циклер
Актеры: Тиль Швайгер, Луна Швайгер, Каролине Шух, Давид Акинлойе, Фолькер Альберс, Нуман Акар, Годе Бенедикс, Мориц Бляйбтрой, Райнер Бок, Ютте-Мерле Бёрнзен

Описание фильма:
Нина, молодая девушка — сирота, неожиданно становится свидетелем убийства, совершенного богатым предпринимателем. Теперь она — большая проблема на пути бизнесмена. Девушке негде укрыться, некуда бежать. Ее спасением становится бывший солдат Макс. Отныне он ее ангел-хранитель. Чтобы остаться в живых, им нужно срочно исчезнуть…

Продолжительность: 02:12:52
Качество видео: HDRip

Видеокодек: Xvid
Битрейт видео: ~1012 kbps
Размер кадра: 720x304
Аудиокодек: AC3, 6 каналов
Битрейт аудио: 448 kbps

Сэмпл: Скачать
Код:

Общее
Полное имя                               : E:\Загрузка\Schutzengel (2012) HDRip.avi
Формат                                   : AVI
Формат/Информация                        : Audio Video Interleave
Размер файла                             : 1,36 Гбайт
Продолжительность                        : 2 ч. 12 м.
Общий поток                              : 1470 Кбит/сек
Программа кодирования                    : VirtualDubMod 1.5.10.3 (build 2550/release)
Библиотека кодирования                   : VirtualDubMod build 2550/release

Видео
Идентификатор                            : 0
Формат                                   : MPEG-4 Visual
Профиль формата                          : Advanced Simple@L5
Параметр BVOP формата                    : 2
Параметр QPel формата                    : Нет
Параметр GMC формата                     : Без точки перехода
Параметр матрицы формата                 : Default (H.263)
Идентификатор кодека                     : XVID
Идентификатор кодека/Подсказка           : XviD
Продолжительность                        : 2 ч. 12 м.
Битрейт                                  : 1012 Кбит/сек
Ширина                                   : 720 пикселей
Высота                                   : 304 пикселя
Соотношение сторон                       : 2,35:1
Частота кадров                           : 23,976 кадра/сек
Цветовое пространство                    : YUV
Субдискретизация насыщенности            : 4:2:0
Битовая глубина                          : 8 бит
Тип развёртки                            : Прогрессивная
Метод сжатия                             : С потерями
Бит/(Пиксели*Кадры)                      : 0.193
Размер потока                            : 962 Мбайт (69%)
Библиотека кодирования                   : XviD 1.2.1 (UTC 2008-12-04)

Аудио
Идентификатор                            : 1
Формат                                   : AC-3
Формат/Информация                        : Audio Coding 3
Идентификатор кодека                     : 2000
Продолжительность                        : 2 ч. 12 м.
Вид битрейта                             : Постоянный
Битрейт                                  : 448 Кбит/сек
Каналы                                   : 6 каналов
Частота                                  : 48,0 КГц
Метод сжатия                             : С потерями
Размер потока                            : 426 Мбайт (31%)
Выравнивание                             : Разделение по промежуткам
Продолжительность промежутка             : 42  мс. (1,00 видеокадр)
Время предзагрузки промежутка            : 500  мс.

Скриншоты:



Приятного просмотра
и не забываем говорить СПАСИБО...

Время раздачи: 24/7
до 15 скачавших..
[NNM-Club.ru]_Schutzengel (2012) HDRip.avi.torrent
 Торрент: Платиновая раздача  Зарегистрирован
 
Скачать


Примагнититься
 Зарегистрирован:   02 Апр 2013 13:06:25
 Размер:   1,36 GB  (
 Рейтинг:   4,7 (Голосов: 62)
 Поблагодарили:   267
 Проверка:   Оформление проверено модератором 02 Апр 2013 13:39:05
Как cкачать  ·  Как раздать  ·  Правильно оформить  ·  Поднять ратио!  
mihails
Стаж: 11 лет 1 мес.
Сообщений: 692
Ratio: 14,049
100%
latvia.gif
Спасибо,Zov72.
uthvfy
Стаж: 8 лет 6 мес.
Сообщений: 2
Ratio: 8,634
Раздал: 3,062 TB
0%
russia.gif
Спасибо
Malgosja
Стаж: 10 лет 1 мес.
Сообщений: 3
Ratio: 3,254
100%
estonia.gif
а почему звука нету???
Stepa56
Модератор Талантов
DG Win&Soft
 
Стаж: 9 лет 5 мес.
Сообщений: 9351
Ratio: 743,482
Поблагодарили: 46682
100%
Откуда: Tver
russia.gif
Malgosja писал(а): Перейти к сообщению
а почему звука нету???

Есть но с расинхронном...
Эту снес, скачал другую, размером 2.06 ГБ, там всё Ок.

_________________
roman1144
Стаж: 7 лет 7 мес.
Сообщений: 144
Ratio: 0,305
100%
russia.gif
звук рветься всю длину.....
Топик был перенесен из форума Зарубежные Новинки (HD*Rip/LQ, DVDRip) в форум Архив Видео

Причина переноса: http://nnmclub.to/forum/viewtopic.php?t=638677
(заменен раздачей без рассинхрона)
Lelya_K
Показать сообщения:   
Начать новую тему   Ответить на тему    Торрент-трекер NNM-Club -> Архив торрентов -> Архив Видео Часовой пояс: GMT + 3
Страница 1 из 1