Интеллигентный торрент-трекер
canvas not supported
Нас вместе: 3 960 374

Снайпер Саха (2010) SATRip


Страницы:  1, 2  След. 
 
RSS
Начать новую тему   Ответить на тему    Торрент-трекер NNM-Club -> Отечественное кино -> Отечественные Фильмы (HD*Rip/LQ, DVDRip, SATRip, VHSRip)
Автор Сообщение
Flint5 ®
Стаж: 6 лет 1 мес.
Сообщений: 162
Ratio: 147,184
Поблагодарили: 21060
100%
russia.gif
Снайпер Саха (2010) SATRip
Русское название: Снайпер Саха
Год выпуска: 2010
Жанр: Драма, Военный

Описание фильма:
Йоханн Райс, бывший гитлерюгенд – одна из ключевых фигур в фильме. Всю свою «послевоенную» жизнь Райнс проходит через осознание событий войны, вновь и вновь возвращается он к моменту спасения. Советский снайпер не выстрелил в него. Хотя был обязан сделать это. Что он при этом чувствовал, что им руководило? Сила это или слабость? Смог ли бы он сам так поступить? Он должен, обязан получить ответ на свой вопрос. Райс вылетает в Россию, в далекую Якутию…

Режиссер: Никита Аржаков
Актеры: Дьулустан Семенов, Спартак Федотов, Сергей Попович, Владислав Молчанов, Ирина Колосова, Антон Котельников, Катерина Нассер, Владимир Ивашов

Продолжительность: 01:19:03



Видеокодек: Xvid
Битрейт видео: ~2313 Kbps
Размер кадра: 704x400
Качество видео: SATRip
Аудиокодек: AC3, 2 канала
Битрейт аудио: 192 Kbps
Сэмпл: Ссылка
Общее
Полное имя : D:\Downloads\Snayper.saha.2010.XviD.SATRip.avi
Формат : AVI
Формат/Информация : Audio Video Interleave
Размер файла : 1,39 Гбайт
Продолжительность : 1 ч. 19 м.
Общий поток : 2512 Кбит/сек
Программа кодирования : VirtualDubMod 1.5.10.2 (build 2540/release)
Библиотека кодирования : VirtualDub build 32842/release

Видео
Идентификатор : 0
Формат : MPEG-4 Visual
Профиль формата : Advanced Simple@L5
Параметр BVOP формата : Нет
Параметр QPel формата : Нет
Параметр GMC формата : Без точки перехода
Параметр матрицы формата : Выборочная
Идентификатор кодека : XVID
Идентификатор кодека/Подсказка : XviD
Продолжительность : 1 ч. 19 м.
Битрейт : 2313 Кбит/сек
Ширина : 704 пикселя
Высота : 400 пикселей
Соотношение сторон : 16:9
Частота кадров : 25,000 кадров/сек
Цветовое пространство : YUV
Субдискретизация насыщенности : 4:2:0
Битовая глубина : 8 бит
Тип развёртки : Прогрессивная
Метод сжатия : С потерями
Бит/(Пиксели*Кадры) : 0.329
Размер потока : 1,28 Гбайт (92%)
Библиотека кодирования : XviD 1.1.2 (UTC 2006-11-01)

Аудио
Идентификатор : 1
Формат : AC-3
Формат/Информация : Audio Coding 3
Расширение режима : CM (complete main)
Параметр Endianness формата : Big
Идентификатор кодека : 2000
Продолжительность : 1 ч. 19 м.
Вид битрейта : Постоянный
Битрейт : 192 Кбит/сек
Каналы : 2 канала
Расположение каналов : Front: L R
Частота : 48,0 КГц
Битовая глубина : 16 бит
Метод сжатия : С потерями
Размер потока : 109 Мбайт (8%)
Выравнивание : Соединение по промежуткам
Продолжительность промежутка : 160 мс. (4,00 видеокадра)
Время предзагрузки промежутка : 640 мс.
Скриншоты:




Время раздачи: c 12-00 до 24-00
[NNM-Club.ru]_Snayper.saha.2010.XviD.SATRip.avi.torrent
 Торрент:   Зарегистрирован
 
Примагнититься
Free Leech
Зарегистрируйтесь и скачайте торрент!
14,2 KB
 Зарегистрирован:   14 Мар 2013 20:02:31
 Размер:   1,39 GB  (
 Рейтинг:   4,7 (Голосов: 88)
 Поблагодарили:   504
 Проверка:   Оформление проверено модератором 14 Мар 2013 23:18:12
Как cкачать  ·  Как раздать  ·  Правильно оформить  ·  Поднять ратио!  
Ajax63
Стаж: 4 года 5 мес.
Сообщений: 10
Ratio: 2,704
26.19%
Спасибо
gloom_99
Стаж: 4 года 5 мес.
Сообщений: 130
Ratio: 24,822
Раздал: 18,07 TB
Поблагодарили: 278
74.2%
Откуда: Fog
netherlands.gif
вопрос а почему 2010 и сатрип?
olchish
Стаж: 4 года 2 мес.
Сообщений: 581
Ratio: 25,185
Раздал: 23,91 TB
9.04%
Откуда: Саранск
pirates.png
http://www.youtube.com/watch?v=aucV8bb-4gE
vovn
Стаж: 6 лет 4 мес.
Сообщений: 285
Ratio: 6,468
Поблагодарили: 274
100%
serbia.gif
Фильм Класс!!!
pidzhak
Стаж: 6 лет 11 мес.
Сообщений: 1
Ratio: 0,534
1.64%
ukraine.gif
Фильм жизнь! Всем кто рождён в СССР, будет понятен от А до Я, сегодняшней молодёже наверное не понять тот патреотизм и ту боль жизни, любовь к близким. И то что ВОВ войну выиграли Мы! рождённые в СССР а не по современной идеологии что эту победу добыли Американские спецназовцы и УПА. Уважение всем кто снял этот фильм и тем кто выложил его у себя на торренте.
shootnick
Стаж: 5 лет 2 мес.
Сообщений: 70
Ratio: 73,604
100%
Откуда: thence
ussr.gif
pidzhak писал(а): Перейти к сообщению
Фильм жизнь! Всем кто рождён в СССР, будет понятен от А до Я, сегодняшней молодёже наверное не понять тот патреотизм и ту боль жизни, любовь к близким. И то что ВОВ войну выиграли Мы! рождённые в СССР а не по современной идеологии что эту победу добыли Американские спецназовцы и УПА. Уважение всем кто снял этот фильм и тем кто выложил его у себя на торренте.


А кто кроме Нас мог выиграть Отечественную Войну? наверно вторую мировую имел ввиду
gloom_99
Стаж: 4 года 5 мес.
Сообщений: 130
Ratio: 24,822
Раздал: 18,07 TB
Поблагодарили: 278
74.2%
Откуда: Fog
netherlands.gif
кто нить может ответить на вопрос : "Почему нет нормального качества?"
Mallek73
Стаж: 4 года 5 мес.
Сообщений: 5
Ratio: 0,027
4.29%
Комп читает отлично а ТВ Самсунь 6800-вместо звука бульканья...что делать?
kig-soft
Стаж: 4 года 7 мес.
Сообщений: 42
Ratio: 23,611
Раздал: 15,32 TB
94.66%
Спасибо! Отличное кино!!!
33c16v37
Стаж: 6 лет 6 мес.
Сообщений: 1
Ratio: 8,062
0%
Отличный фильм. Без понтов, без грязи, про войну, про людей на войне. Якуты молодцы, сняли хорошее кино. На войне за Родину бились и сейчас за неё постояли. Спасибо.
Aalex1ey
Стаж: 6 лет 7 мес.
Сообщений: 18
Ratio: 8,151
81.33%
russia.gif
shootnick писал(а): Перейти к сообщению
pidzhak писал(а): Перейти к сообщению
Фильм жизнь! Всем кто рождён в СССР, будет понятен от А до Я, сегодняшней молодёже наверное не понять тот патреотизм и ту боль жизни, любовь к близким. И то что ВОВ войну выиграли Мы! рождённые в СССР а не по современной идеологии что эту победу добыли Американские спецназовцы и УПА. Уважение всем кто снял этот фильм и тем кто выложил его у себя на торренте.


А кто кроме Нас мог выиграть Отечественную Войну? наверно вторую мировую имел ввиду
Для Нас вторая мировая это и есть Отечественная война.
delphiman
Стаж: 5 лет 6 мес.
Сообщений: 978
Ratio: 3,716
100%
Откуда: Лабытнанги
russia.gif
Якуты молодцы! Так и ненцы по мойму воевали...?! или ошибаюсь...?

Они (ненцы) - стрелки хорошие!

_________________
Не пропадет хакер в тюряге - провайдером сделают - будет почтовые дороги правильным пацанам маршрутизировать
mr.relax
Стаж: 7 лет 7 мес.
Сообщений: 77
Ratio: 29,097
Поблагодарили: 1
100%
Откуда: Ukraine
ukraine.gif
Просмотрел без особых эмоций. Фильм средненький.
АНДРЕЙ 132
Стаж: 6 лет
Сообщений: 78
Ratio: 27,482
Поблагодарили: 3335
44.76%
Откуда: Днепр
ukraine.gif
Приглашаю на ДВД-5 Снайпер Саха (2010) DVD5
Показать сообщения:   
Начать новую тему   Ответить на тему    Торрент-трекер NNM-Club -> Отечественное кино -> Отечественные Фильмы (HD*Rip/LQ, DVDRip, SATRip, VHSRip) Часовой пояс: GMT + 3
Страницы:  1, 2  След.
Страница 1 из 2