Классический форум-трекер
canvas not supported
Нас вместе: 4 068 904

Сумерки. Сага. Рассвет: Часть 2 / The Twilight Saga: Breaking Dawn - Part 2 (2012) BDRip [H.264]


 
 
RSS
Начать новую тему   Ответить на тему    Торрент-трекер NNM-Club -> Зарубежное кино -> Зарубежные Фильмы (HD*Rip/LQ, DVDRip, SATRip, VHSRip)
Автор Сообщение
Zov72 ®
Стаж: 9 лет 1 мес.
Сообщений: 4743
Ratio: 110,504
Поблагодарили: 594609
100%
Откуда: Вольный кабан
wild_hogs.gif
Сумерки. Сага. Рассвет: Часть 2 / The Twilight Saga: Breaking Dawn - Part 2 (2012) BDRip
«Грандиозный финал бессмертной саги»

Русское название: Сумерки. Сага. Рассвет: Часть 2
Оригинальное название: The Twilight Saga: Breaking Dawn - Part 2
Год выпуска: 2012
Производство: США / Lionsgate, Summit Entertainment
Жанр: Фэнтези, Драма, Мелодрама, Приключения
Перевод: Дублированный [Лицензия]
Язык субтитров: Русский, английский
Вид субтитров: Вшитые отключаемые

Дата мировой премьеры: 14 ноября 2012
Дата российской премьеры: 15 ноября 2012, «West»
Дата выхода DVD релиза: 5 марта 2013, «West Video»
Дата выхода Blu-Ray релиза: 5 марта 2013, «West Video»

Режиссер: Билл Кондон
Продюсер: Вик Годфри, Стефани Майер, Карен Розенфельт
Актеры: Кристен Стюарт, Роберт Паттинсон, Тэйлор Лотнер, Питер Фачинелли, Элизабет Ризер, Эшли Грин, Джексон Рэтбоун, Келлан Латс, Никки Рид, Билли Бёрк

Описание фильма:
Белла, став вампиром, постепенно свыкается со своей новой природой. В этом ей помогают Эдвард и остальные члены семьи Калленов. К тому же теперь у Беллы есть дочь Ренесми и вечность впереди. Джейкоб, запечатленный с Ренесми, становится для девочки другом и наставником. Ненадолго для героев наступают спокойные, счастливые дни. Все заканчивается, когда вести о Ренесми доходят до Вольтури. «Обращение» детей строго запрещено в мире вампиров. Не зная о необычном происхождении Ренесми, Вольтури собирают армию и направляются в Форкс, чтобы уничтожить Калленов.

Продолжительность: 01:55:12
Качество видео: BDRip

Видеокодек: MPEG-4 AVC/H.264
Битрейт видео: ~1445 Кбит/сек
Размер кадра: 1024x426
Аудио: AC3 5.1, 448 Кбит/сек

Сэмпл: Скачать
Код:

Общее
Уникальный идентификатор                 : 254210713053870206720559761843871997191 (0xBF3F33D377024E5E9E56789BC2CEDD07)
Полное имя                               : E:\Загрузка\Sumerki.Saga.Rassvet.Chast-2.2012.x264.BDRip.(AVC).mkv
Формат                                   : Matroska
Версия формата                           : Version 2
Размер файла                             : 1,52 Гбайт
Продолжительность                        : 1 ч. 55 м.
Общий поток                              : 1895 Кбит/сек
Название фильма                          : Sumerki.Saga.Rassvet-Chast-2.2012.x264.BDRip.(AVC)
Дата кодирования                         : UTC 2013-03-13 05:52:36
Программа кодирования                    : mkvmerge v5.2.1 ('A Far Off Place') built on Feb  6 2012 10:08:15
Библиотека кодирования                   : libebml v1.2.3 + libmatroska v1.3.0

Видео
Идентификатор                            : 1
Формат                                   : AVC
Формат/Информация                        : Advanced Video Codec
Профиль формата                          : High@L4.1
Параметр CABAC формата                   : Да
Параметр ReFrames формата                : 12 кадров
Идентификатор кодека                     : V_MPEG4/ISO/AVC
Продолжительность                        : 1 ч. 55 м.
Битрейт                                  : 1445 Кбит/сек
Ширина                                   : 1024 пикселя
Высота                                   : 426 пикселей
Соотношение сторон                       : 2,40:1
Частота кадров                           : 23,976 кадра/сек
Цветовое пространство                    : YUV
Субдискретизация насыщенности            : 4:2:0
Битовая глубина                          : 8 бит
Тип развёртки                            : Прогрессивная
Бит/(Пиксели*Кадры)                      : 0.138
Размер потока                            : 1,13 Гбайт (74%)
Библиотека кодирования                   : x264 core 125 r2208 d9d2288
Настройки программы                      : cabac=1 / ref=12 / deblock=1:-1:-1 / analyse=0x3:0x133 / me=umh / subme=11 / psy=1 / psy_rd=1.00:0.10 / mixed_ref=1 / me_range=32 / chroma_me=1 / trellis=2 / 8x8dct=1 / cqm=0 / deadzone=21,11 / fast_pskip=0 / chroma_qp_offset=-3 / threads=6 / lookahead_threads=1 / sliced_threads=0 / nr=0 / decimate=1 / interlaced=0 / bluray_compat=0 / constrained_intra=0 / bframes=11 / b_pyramid=2 / b_adapt=2 / b_bias=0 / direct=3 / weightb=1 / open_gop=0 / weightp=2 / keyint=240 / keyint_min=23 / scenecut=40 / intra_refresh=0 / rc_lookahead=50 / rc=2pass / mbtree=1 / bitrate=1445 / ratetol=1.0 / qcomp=0.60 / qpmin=0 / qpmax=69 / qpstep=4 / cplxblur=20.0 / qblur=0.5 / ip_ratio=1.40 / aq=1:1.00
Язык                                     : English
Default                                  : Да
Forced                                   : Нет

Аудио
Идентификатор                            : 2
Формат                                   : AC-3
Формат/Информация                        : Audio Coding 3
Расширение режима                        : CM (complete main)
Параметр Endianness формата              : Big
Идентификатор кодека                     : A_AC3
Продолжительность                        : 1 ч. 55 м.
Вид битрейта                             : Постоянный
Битрейт                                  : 448 Кбит/сек
Каналы                                   : 6 каналов
Расположение каналов                     : Front: L C R, Side: L R, LFE
Частота                                  : 48,0 КГц
Битовая глубина                          : 16 бит
Метод сжатия                             : С потерями
Размер потока                            : 369 Мбайт (24%)
Default                                  : Да
Forced                                   : Нет

Текст #1
Идентификатор                            : 3
Формат                                   : UTF-8
Идентификатор кодека                     : S_TEXT/UTF8
Идентификатор кодека/Информация          : UTF-8 Plain Text
Язык                                     : Russian
Default                                  : Нет
Forced                                   : Нет

Текст #2
Идентификатор                            : 4
Формат                                   : UTF-8
Идентификатор кодека                     : S_TEXT/UTF8
Идентификатор кодека/Информация          : UTF-8 Plain Text
Язык                                     : English
Default                                  : Нет
Forced                                   : Нет

Меню
00:00:00.000                             : en:
00:08:04.066                             : en:
00:13:35.396                             : en:
00:18:36.073                             : en:
00:22:11.079                             : en:
00:30:03.343                             : en:
00:38:06.158                             : en:
00:44:23.619                             : en:
00:48:35.829                             : en:
00:52:31.439                             : en:
00:58:11.946                             : en:
01:02:10.351                             : en:
01:08:26.060                             : en:
01:11:38.502                             : en:
01:20:35.455                             : en:
01:24:57.509                             : en:
01:32:17.156                             : en:
01:38:08.966                             : en:

Скриншоты:



Приятного просмотра
и не забываем говорить СПАСИБО...

Время раздачи: 24/7
до 15 скачавших..
[NNM-Club.ru]_Sumerki.Saga.Rassvet.Chast-2.2012.x264.BDRip.(AVC).mkv.torrent
 Торрент: Платиновая раздача  Зарегистрирован
 
Скачать


Примагнититься
 Зарегистрирован:   13 Мар 2013 08:56:11
 Размер:   1,52 GB  (
 Рейтинг:   4 (Голосов: 101)
 Поблагодарили:   353
 Проверка:   Оформление проверено модератором 13 Мар 2013 10:13:46
Как cкачать  ·  Как раздать  ·  Правильно оформить  ·  Поднять ратио!  
Zov72 ®
Стаж: 9 лет 1 мес.
Сообщений: 4743
Ratio: 110,504
Поблагодарили: 594609
100%
Откуда: Вольный кабан
wild_hogs.gif
А здесь вся Сага :
Сумерки.Сага: Квадрология / Twilight. Saga: Quadrology (2008-2012) [H.264] BDRip
Сумерки.Сага: Квадрология / Twilight. Saga: Quadrology (2008-2012) HDRip
Сумерки.Сага: Квадрология / Twilight. Saga: Quadrology (2008-2012) HDRip


_________________
Мне чужого не надо….Но свое я заберу, чье бы оно ни было!!!
Princessa1
Стаж: 8 лет 3 мес.
Сообщений: 2
Ratio: 1,398
100%
russia.gif
Встаньте на раздачу пожалуйста, не могу ни где скачать.
Показать сообщения:   
Начать новую тему   Ответить на тему    Торрент-трекер NNM-Club -> Зарубежное кино -> Зарубежные Фильмы (HD*Rip/LQ, DVDRip, SATRip, VHSRip) Часовой пояс: GMT + 3
Страница 1 из 1