Классический форум-трекер
canvas not supported
Нас вместе: 4 068 918

Линкольн / Lincoln (2012) HDRip


 
 
RSS
Начать новую тему   Ответить на тему    Торрент-трекер NNM-Club -> Архив торрентов -> Архив Видео
Автор Сообщение
Zov72 ®
Стаж: 9 лет 1 мес.
Сообщений: 4743
Ratio: 110,504
Поблагодарили: 594609
100%
Откуда: Вольный кабан
wild_hogs.gif
Линкольн / Lincoln (2012) HDRip
Русское название: Линкольн
Оригинальное название: Lincoln
Год выпуска: 2012
Производство: США | DreamWorks SKG
Жанр: Драма, Военный, Биография, История
Перевод: Профессиональный многоголосый [BaiBako]
Субтитры: Отсутствуют

Дата мировой премьеры: 8 октября 2012
Дата российской премьеры: 24 января 2013, «Двадцатый Век Фокс СНГ»
Дата выхода DVD релиза: 16 мая 2013, «Двадцатый Век Фокс СНГ»
Дата выхода Blu-Ray релиза: 16 мая 2013, «Двадцатый Век Фокс СНГ»

Режиссер: Стивен Спилберг
Продюсер: Кэтлин Кеннеди, Стивен Спилберг, Джонатан Кинг
Актеры: Дэниэл Дэй-Льюис, Салли Филд, Джозеф Гордон-Левитт, Джеймс Спэйдер, Хэл Холбрук, Томми Ли Джонс, Джон Хоукс, Джеки Эрл Хейли, Брюс МакГилл

Описание фильма:
Биографическая лента об Аврааме Линкольне, шестнадцатом президенте США, который внес неоценимый вклад в победу северян во времена гражданской войны.

Продолжительность: 02:29:46
Качество видео: HDRip

Видеокодек: Xvid
Битрейт видео: ~ 1562 Кбит/сек
Размер кадра: 720x304
Аудиокодек: AC3, 6 ch
Битрейт аудио: 384 Кбит/сек
Код:

Общее
Полное имя                               : E:\Загрузка\Lincoln.2012.P.HDRip.2100MB.avi
Формат                                   : AVI
Формат/Информация                        : Audio Video Interleave
Профиль формата                          : OpenDML
Размер файла                             : 2,05 Гбайт
Продолжительность                        : 2 ч. 29 м.
Общий поток                              : 1958 Кбит/сек
Программа кодирования                    : VirtualDubMod 1.5.10.2 (build 2540/release)
Библиотека кодирования                   : VirtualDubMod build 2540/release

Видео
Идентификатор                            : 0
Формат                                   : MPEG-4 Visual
Профиль формата                          : Advanced Simple@L5
Параметр BVOP формата                    : 2
Параметр QPel формата                    : Нет
Параметр GMC формата                     : Без точки перехода
Параметр матрицы формата                 : Default (MPEG)
Идентификатор кодека                     : XVID
Идентификатор кодека/Подсказка           : XviD
Продолжительность                        : 2 ч. 29 м.
Битрейт                                  : 1562 Кбит/сек
Ширина                                   : 720 пикселей
Высота                                   : 304 пикселя
Соотношение сторон                       : 2,35:1
Частота кадров                           : 23,976 кадра/сек
Цветовое пространство                    : YUV
Субдискретизация насыщенности            : 4:2:0
Битовая глубина                          : 8 бит
Тип развёртки                            : Прогрессивная
Метод сжатия                             : С потерями
Бит/(Пиксели*Кадры)                      : 0.298
Размер потока                            : 1,64 Гбайт (80%)
Библиотека кодирования                   : XviD 1.2.1 (UTC 2008-12-04)

Аудио
Идентификатор                            : 1
Формат                                   : AC-3
Формат/Информация                        : Audio Coding 3
Расширение режима                        : CM (complete main)
Параметр Endianness формата              : Big
Идентификатор кодека                     : 2000
Продолжительность                        : 2 ч. 29 м.
Вид битрейта                             : Постоянный
Битрейт                                  : 384 Кбит/сек
Каналы                                   : 6 каналов
Расположение каналов                     : Front: L C R, Side: L R, LFE
Частота                                  : 48,0 КГц
Битовая глубина                          : 16 бит
Метод сжатия                             : С потерями
Размер потока                            : 412 Мбайт (20%)
Выравнивание                             : Разделение по промежуткам
Продолжительность промежутка             : 42  мс. (1,00 видеокадр)
Время предзагрузки промежутка            : 500  мс.


Cкриншоты из фильма:



Приятного просмотра
и не забываем говорить СПАСИБО...

Время раздачи: 24/7,
до 15 скачавших...
[NNM-Club.ru]_Lincoln.2012.P.HDRip.2100MB.avi.torrent
 Торрент:   Зарегистрирован
 
Зарегистрируйтесь и скачайте торрент!
10,7 KB

Примагнититься
 Зарегистрирован:   08 Мар 2013 17:07:33
 Размер:   2,05 GB  (
 Рейтинг:   4,7 (Голосов: 51)
 Поблагодарили:   378
 Проверка:   Оформление проверено модератором 09 Мар 2013 07:55:55
Как cкачать  ·  Как раздать  ·  Правильно оформить  ·  Поднять ратио!  
a156070
Стаж: 9 лет 1 мес.
Сообщений: 1
Ratio: 1,328
0.71%
russia.gif
как озвучка?
Dee2photo
Стаж: 8 лет 10 мес.
Сообщений: 10
Ratio: 2,423
44.59%
Cудя по сэмплу нормально, но не идеально - прослушивается англ.яз, длина реплик (англ и рус) не совпадает. Но чисто всё, без шумов.
Buki215
Стаж: 7 лет 11 мес.
Сообщений: 66
Ratio: 3,922
Раздал: 1,113 TB
Поблагодарили: 107
100%
Откуда: Баку
azerbaijan.gif
Ладно тогда как фильм ?
PashCo
Стаж: 8 лет 6 мес.
Сообщений: 2
Ratio: 8,925
1.8%
ukraine.gif
Озвучка очень даже не плохая, английская речь не мешает, фильм достоин для просмотра.
lyolik r
Стаж: 8 лет
Сообщений: 106
Ratio: 12,182
100%
С чего это BaiBako вдруг стали професионалами ???
veverka
Стаж: 8 лет 4 мес.
Сообщений: 202
Ratio: 1,85
8.28%
czechrepublic.gif
озвучка не совпадает кому невтерпёж качайте но не советую
xaaxool
Стаж: 7 лет 8 мес.
Сообщений: 67
Ratio: 3,749
24.24%
ukraine.gif
5 минут не совпадает, а так все норм
hookiman
Стаж: 8 лет 7 мес.
Сообщений: 307
Ratio: 2,116
19.54%
да не совпадения есть но бюближе к середине фильма , а так в целом озвучка слушабеьна . что касается самого фильма. то если честно я бы не дал ему рейтинг 7\10 , слабоват и скучен .. с трудом осилил весь фильм.
Топик был перенесен из форума Зарубежные Новинки (HD*Rip/LQ, DVDRip) в форум Архив Видео

Причина переноса: http://nnmclub.to/forum/viewtopic.php?t=629342
(без рассинхрона)
Lelya_K
Показать сообщения:   
Начать новую тему   Ответить на тему    Торрент-трекер NNM-Club -> Архив торрентов -> Архив Видео Часовой пояс: GMT + 3
Страница 1 из 1