Интеллигентный торрент-трекер
canvas not supported
Нас вместе: 4 138 503

Отбросы / Misfits (2012) BDRip [H.264/720p] [Сезон 4, Серии 1-8 (8)] (Кубик в кубе, Novafilm)


 
 
RSS
Начать новую тему   Ответить на тему    Торрент-трекер NNM-Club -> Зарубежные сериалы -> Отбросы / Misfits
Автор Сообщение
GuNNeRII ®
Стаж: 6 лет 3 мес.
Сообщений: 26
Ratio: 4157,724
Раздал: 2,483 TB
Поблагодарили: 1685
95.54%
czechrepublic.gif
Отбросы, Сезон 4 / Misfits, Series Four
«When five young outsiders on community service get caught in a strange storm they soon realise they have developed superpowers.»
Русское название: Отбросы
Оригинальное название: Misfits
Год выпуска: 2012
Жанр: фантастика, драма, чёрная комедия
Страна: Великобритания | E4
Описание фильма: В четвёртом сезоне появятся три новых персонажа: Джесс — умная, острая на язык девушка, своего рода Ларри Дэвид в юбке. Такие люди как она говорят на табуированные темы, нарушают социальные нормы и этикет. Джесс ненавидит людей, которые врут ей и несут ахинею.
Финн — наивный оптимист, всегда старается угодить всем. Очень много болтает, что частенько помогает ему выпутаться из трудного положения. Уморительный чувак.
Алекс — самый любовьуальный парень на исправительных работах, красавчик, его хотят все девушки. Но почему-то он с ними холоден, кажется девушки его не интересуют. Окружающие считают такое поведение очень подозрительным и предполагают, что это связано с его суперспособностью.
Подростки, совершившие мелкие преступления, трудятся на общественных работах. Они — не друзья. Более того, у них нет ничего общего, и в их группе постоянно происходят конфликты. Но в один ненастный день разряд молнии делает из них супергероев! Подростки понятия не имеют, что с этим делать. Но судьба им припасла новые испытания, ведь после ненастья сверхспособностями стали обладать не только они...

Режиссёр: Том Грин, Душан Лазаревич, Джонатан ван Тюллекен

В ролях: Джозеф Гилган (Rudy Wade), Натан Стюарт-Джарретт (Curtis Donovan), Нейтан МакМаллен (Finn), Карла Кроум (Jess), Мэтт Стокоу (Alex), Мэттью МакНалти (Seth), Шон Дули (Greg)
Продолжительность: ~00:46:00 x8
Перевод: профессиональный двухголосый закадровый (Кубик в кубе), профессиональный многоголосый закадровый (Novafilm)
Субтитры: английские (SDH)
Вид субтитров: вшитые, отключаемые


Автор рипа: GuNNeR
Качество видео: BDRip 720p [Misfits S04 1080i UK Blu-ray AVC DTS-HD MA 2 0-BluHD]
Формат: MKV
Видео: H.264/AVC, CRF 17, 1280x720 (16:9), 25 fps, 3500-5000 kbps, 0.185 bpp
Аудио №1: Русский: AC3, 48 kHz, 2/0 (L, R), ~192 kbps (Кубик в кубе)
Аудио №2: Русский: AC3, 48 kHz, 2/0 (L, R), ~192 kbps (Novafilm)
Аудио №3: Английский: FLAC, 48 kHz, 2/0 (L, R), ~600 kbps
General
Complete name : Misfits.S04.720p.BluRay.2xRus.Eng-GuNNeR\Misfits S04E01 BDRip 720p.mkv
Format : Matroska
Format version : Version 2
File size : 1.66 GiB
Duration : 45mn 26s
Overall bit rate mode : Variable
Overall bit rate : 5 245 Kbps
Movie name : Misfits [S04] (2012)
Encoded date : UTC 2013-02-27 16:25:41
Writing application : mkvmerge v5.8.0 ('No Sleep / Pillow') built on Sep 2 2012 15:37:04
Writing library : libebml v1.2.3 + libmatroska v1.3.0

Video
ID : 1
Format : AVC
Format/Info : Advanced Video Codec
Format profile : High@L4.1
Format settings, CABAC : Yes
Format settings, ReFrames : 9 frames
Codec ID : V_MPEG4/ISO/AVC
Duration : 45mn 26s
Width : 1 280 pixels
Height : 720 pixels
Display aspect ratio : 16:9
Frame rate : 25.000 fps
Color space : YUV
Chroma subsampling : 4:2:0
Bit depth : 8 bits
Scan type : Progressive
Title : -GuNNeR-
Writing library : x264 core 129 r2245 bc13772
Encoding settings : cabac=1 / ref=9 / deblock=1:-3:-3 / analyse=0x3:0x113 / me=umh / subme=10 / psy=1 / psy_rd=1.00:0.10 / mixed_ref=1 / me_range=32 / chroma_me=1 / trellis=2 / 8x8dct=1 / cqm=0 / deadzone=21,11 / fast_pskip=1 / chroma_qp_offset=-3 / threads=4 / lookahead_threads=1 / sliced_threads=0 / nr=0 / decimate=1 / interlaced=0 / bluray_compat=0 / constrained_intra=0 / bframes=12 / b_pyramid=2 / b_adapt=2 / b_bias=0 / direct=1 / weightb=1 / open_gop=0 / weightp=2 / keyint=250 / keyint_min=25 / scenecut=40 / intra_refresh=0 / rc_lookahead=50 / rc=crf / mbtree=0 / crf=17.0 / qcomp=0.60 / qpmin=10 / qpmax=51 / qpstep=4 / vbv_maxrate=50000 / vbv_bufsize=62500 / crf_max=0.0 / nal_hrd=none / ip_ratio=1.40 / pb_ratio=1.30 / aq=2:0.60
Language : English
Default : Yes
Forced : No
Color primaries : BT.709-5, BT.1361, IEC 61966-2-4, SMPTE RP177
Transfer characteristics : BT.709-5, BT.1361
Matrix coefficients : BT.709-5, BT.1361, IEC 61966-2-4 709, SMPTE RP177

Audio #1
ID : 2
Format : AC-3
Format/Info : Audio Coding 3
Mode extension : CM (complete main)
Codec ID : A_AC3
Duration : 45mn 26s
Bit rate mode : Constant
Bit rate : 192 Kbps
Channel(s) : 2 channels
Channel positions : Front: L R
Sampling rate : 48.0 KHz
Bit depth : 16 bits
Compression mode : Lossy
Stream size : 62.4 MiB (4%)
Title : DVO - Кубик в кубе
Language : Russian
Default : Yes
Forced : No

Audio #2
ID : 3
Format : AC-3
Format/Info : Audio Coding 3
Mode extension : CM (complete main)
Codec ID : A_AC3
Duration : 45mn 26s
Bit rate mode : Constant
Bit rate : 192 Kbps
Channel(s) : 2 channels
Channel positions : Front: L R
Sampling rate : 48.0 KHz
Bit depth : 16 bits
Compression mode : Lossy
Stream size : 62.4 MiB (4%)
Title : MVO - Novafilm
Language : Russian
Default : No
Forced : No

Audio #3
ID : 4
Format : FLAC
Format/Info : Free Lossless Audio Codec
Codec ID : A_FLAC
Duration : 45mn 26s
Bit rate mode : Variable
Channel(s) : 2 channels
Sampling rate : 48.0 KHz
Bit depth : 16 bits
Title : FLAC 2.0 ~600 kbps
Writing library : libFLAC 1.2.1 (UTC 2007-09-17)
Language : English
Default : No
Forced : No

Text
ID : 5
Format : UTF-8
Codec ID : S_TEXT/UTF8
Codec ID/Info : UTF-8 Plain Text
Title : SDH
Language : English
Default : No
Forced : No

Menu
00:00:00.000 : en:00:00:00.000
00:07:10.600 : en:00:07:10.600
00:15:29.000 : en:00:15:29.000
00:22:00.360 : en:00:22:00.360
00:29:12.040 : en:00:29:12.040
00:35:38.840 : en:00:35:38.840


Время раздачи: круглосуточно (до 10ти скачавших)
 Торрент: Платиновая раздача  Зарегистрирован
 
Скачать


 Зарегистрирован:   01 Мар 2013 22:43:17
 Размер:   12,8 GB  (
 Рейтинг:   4,9 (Голосов: 96)
 Поблагодарили:   263
 Проверка:   Оформление проверено модератором 01 Мар 2013 23:30:26
Как cкачать  ·  Как раздать  ·  Правильно оформить  ·  Поднять ратио!  
megayeah
Стаж: 5 лет 5 мес.
Сообщений: 1
Ratio: 1,613
100%
Спасибо
Cresil
Стаж: 6 лет 1 мес.
Сообщений: 103
Ratio: 14,179
Раздал: 3,439 TB
100%
Откуда: Екате​ринбу​рг​
russia.gif
наконец 4 сезон сняли)
ЯМарийка
Стаж: 7 лет 7 мес.
Сообщений: 55
Ratio: 3,061
100%
nnm-club.gif
спасибо) все, что надо - и озвучки и сабы
redfelum
Стаж: 1 год 9 мес.
Сообщений: 1
Ratio: 0,296
13.33%
чет раздающих нету, встаньте ктонить на раздачу
Показать сообщения:   
Начать новую тему   Ответить на тему    Торрент-трекер NNM-Club -> Зарубежные сериалы -> Отбросы / Misfits Часовой пояс: GMT + 3
Страница 1 из 1

День смеха и юмора отмечается 1 апреля. В этот день принято шутить и разыгрывать друзей, коллег по работе, домашних, словом всех, с кем Вам предстоит увидеться в этот праздник – первое апреля. Первоапрельские розыгрыши, приколы на 1 апреля, первоапрельские шутки должны быть веселыми и безобидными. Приколы на 1 апреля, как правило, удаются в том случае, если человек забыл какой сегодня месяц и день, словом, забыл про 1 апреля – день смеха, шуток, день дурака.

Желаем Вам много улыбок и хорошего настроения в этот день!
С Уважением, администрация NNM-Club :)