Классический форум-трекер
canvas not supported
Нас вместе: 4 068 662

Любовница моей жены / Tai tai de qing ren (My Wife's Lover) (1992) DVDRip


 
 
RSS
Начать новую тему   Ответить на тему    Торрент-трекер NNM-Club -> Зарубежное кино -> Азиатское кино (HD*Rip/LQ, DVDRip, SATRip, VHSRip)
Автор Сообщение
jemeljanov ®
RG Releasers
 
Стаж: 8 лет 1 мес.
Сообщений: 1737
Ratio: 404,395
Поблагодарили: 141505
100%
estonia.gif
Любовница моей жены / Tai tai de qing ren (My Wife's Lover) (1992) DVDRip
Производство: Гонконг / Take Show
Жанр: Драма, Эротика

Режиссер: Кевин Чу
Актеры: Кин-Ман Чик, Мария Танг Линг, Вэй Лам, Boffy Cheung, Siu Yuet Ching, Leo Lam, Винсент Вэй Лам, Keiko Yamaguchi

Описание:
Эротическая драма о молодой супружеской паре, брак которой начинает рушиться. Оба - и муж, и жена - начинают встречаться с другими партнерами. Он встречает красивую женщину-фотографа, а она - она тоже встречает ее же, и у нее тоже начинается интрижка с женщиной, той же самой женщиной, что и у мужа... Ей предстоит заново открыть в себе новый грани сексуальности. Отличная лесбийская драма! Много сексуальных сцен.


Возраст: 18+ (зрителям, достигшим 18 лет. запрещено для детей)

Продолжительность: 01:27:23
Качество видео: DVDRip
Перевод: Одноголосый закадровый
Субтитры: отсутствуют

Видео: DivX 5, 608x352, ~1330 Kbps
Аудио: MP3, 2 ch, 128 Kbps
Общее
Полное имя : Ljubovnica.moej.zheny.1992.DVDRip.avi
Формат : AVI
Формат/Информация : Audio Video Interleave
Размер файла : 918 Мбайт
Продолжительность : 1 ч. 27 м.
Общий поток : 1469 Кбит/сек
Программа кодирования : VirtualDubMod 1.5.10.2 (build 2540/release)
Библиотека кодирования : VirtualDubMod build 2540/release

Видео
Идентификатор : 0
Формат : MPEG-4 Visual
Параметр BVOP формата : 1
Параметр QPel формата : Нет
Параметр GMC формата : Без точки перехода
Параметр матрицы формата : Default (H.263)
Режим смешивания : Сжатый битовый поток
Идентификатор кодека : DX50
Идентификатор кодека/Подсказка : DivX 5
Продолжительность : 1 ч. 27 м.
Битрейт : 1332 Кбит/сек
Ширина : 608 пикселей
Высота : 352 пикселя
Соотношение сторон : 1,727
Частота кадров : 23,976 кадра/сек
Цветовое пространство : YUV
Субдискретизация насыщенности : 4:2:0
Битовая глубина : 8 бит
Тип развёртки : Прогрессивная
Метод сжатия : С потерями
Бит/(Пиксели*Кадры) : 0.260
Размер потока : 832 Мбайт (91%)
Библиотека кодирования : DivX 5.2.1 (WaffleDay) (UTC 2004-09-08)

Аудио
Идентификатор : 1
Формат : MPEG Audio
Версия формата : Version 1
Профиль формата : Layer 3
Режим : Joint stereo
Расширение режима : MS Stereo
Идентификатор кодека : 55
Идентификатор кодека/Подсказка : MP3
Продолжительность : 1 ч. 27 м.
Вид битрейта : Постоянный
Битрейт : 128 Кбит/сек
Каналы : 2 канала
Частота : 48,0 КГц
Метод сжатия : С потерями
Размер потока : 80,0 Мбайт (9%)
Выравнивание : Соединение по промежуткам
Продолжительность промежутка : 42 мс. (1,00 видеокадр)
Время предзагрузки промежутка : 504 мс.
Скриншоты:
/// Отреставрируем и восстановим всем Клубом! ///

Релизы фильма "Любовница моей жены / My Wife's Lover (Tai tai de qing ren)" на NNM Club
Время раздачи: с 8:00 до 02:00 (до появления первых 3-5 скачавших)
[NNM-Club.ru]_Ljubovnica.moej.zheny.1992.DVDRip.avi.torrent
 Торрент: Платиновая раздача  Зарегистрирован
 
Скачать


Примагнититься
 Зарегистрирован:   30 Дек 2012 21:06:12
 Размер:   918 MB  (
 Рейтинг:   4,3 (Голосов: 59)
 Поблагодарили:   254
 Проверка:   Оформление проверено модератором 31 Дек 2012 20:41:24
Как cкачать  ·  Как раздать  ·  Правильно оформить  ·  Поднять ратио!  
verrvollf
Стаж: 9 лет 4 мес.
Сообщений: 420
Ratio: 1,36
25.37%
russia.gif
пора открывать отдел эротики!
Vsadnik_SVK
Стаж: 8 лет 2 мес.
Сообщений: 200
Ratio: 28,761
Поблагодарили: 71
100%
ukraine.gif
Давно пора, и доступ только предоставившим скан паспорта)))
jemeljanov ®
RG Releasers
 
Стаж: 8 лет 1 мес.
Сообщений: 1737
Ratio: 404,395
Поблагодарили: 141505
100%
estonia.gif
Vsadnik_SVK писал(а): Перейти к сообщению
Давно пора, и доступ только предоставившим скан паспорта)))

Чей паспорт? И что, кроме скандинавии никто не сможет смотреть? Балтийские страны тоже рядом. И Карелия, и Ленинградская область...

_________________
Vsadnik_SVK
Стаж: 8 лет 2 мес.
Сообщений: 200
Ratio: 28,761
Поблагодарили: 71
100%
ukraine.gif
jemeljanov писал(а): Перейти к сообщению
Vsadnik_SVK писал(а): Перейти к сообщению
Давно пора, и доступ только предоставившим скан паспорта)))

Чей паспорт? И что, кроме скандинавии никто не сможет смотреть? Балтийские страны тоже рядом. И Карелия, и Ленинградская область...

Вот блин, уже и пошутить нельзя.
shal
Стаж: 9 лет 2 мес.
Сообщений: 1090
Ratio: 10,357
100%
krevedko.png
Вот в Ленинградской области нельзя.У них запрет.А то сосуля упадет.

_________________
Мы из Советского Союза, прибыли по культурному обмену. Наши знают, где мы. Ищут.
lapyzo
Стаж: 8 лет
Сообщений: 160
Ratio: 21,384
Поблагодарили: 459
100%
Откуда: из народа
russia.gif
Vsadnik_SVK писал(а): Перейти к сообщению
jemeljanov писал(а): Перейти к сообщению
Vsadnik_SVK писал(а): Перейти к сообщению
Давно пора, и доступ только предоставившим скан паспорта)))

Чей паспорт? И что, кроме скандинавии никто не сможет смотреть? Балтийские страны тоже рядом. И Карелия, и Ленинградская область...

Вот блин, уже и пошутить нельзя.

Как жаль, что я не с Скандинавии! :смущение:
Топик был перенесен из форума Грайндхаус в форум Азиатское кино (HD*Rip/LQ, DVDRip, SATRip, VHSRip)



Исправил релиз - напиши ЛС Kalex, дав ссылку на релиз.
Если нет ответа 24 часа - нажми на кнопку "Обратить внимание модераторов".
Показать сообщения:   
Начать новую тему   Ответить на тему    Торрент-трекер NNM-Club -> Зарубежное кино -> Азиатское кино (HD*Rip/LQ, DVDRip, SATRip, VHSRip) Часовой пояс: GMT + 3
Страница 1 из 1