Классический форум-трекер
canvas not supported
Нас вместе: 4 064 971

Отбросы / Плохие / Misfits (Сезоны 1-4) (2009-2012) WEB-DL 720p, BDRip 720p


 
 
RSS
Начать новую тему   Ответить на тему    Торрент-трекер NNM-Club -> Зарубежные сериалы -> Отбросы / Misfits
Автор Сообщение
netshy ®
Стаж: 7 лет 7 мес.
Сообщений: 19
Ratio: 16,085
Поблагодарили: 1902
0.31%
Отбросы / Плохие / Misfits (Сезоны 1-4) (2009-2012) WEB-DL 720p, BDRip 720p
Русское название: Отбросы / Плохие
Оригинальное название: Misfits
Год выпуска: 2009 - 2012
Жанр: Kомедия, Драма, Фантастика

Перевод:
Трехголосый закадровый, Новамедиа (1 сезон)
Двухголосый закадровый, Кубик в Кубе (1-3 сезон)
Многоголосый закадровый, MTV (1 сезон)




Режиссер: Том Грин, Джонатан ван Тюллекен, Том Харпер
Актеры: Роберт Шина, Антония Томас, Лорен Соча, Айван Рион, Натан Стюарт-Джарретт, Алекс Рид

Описание фильма: Келли, Натан, Кёртис, Алиша и Саймон выполняют общественные работы за совершение мелких преступлений. Они — не друзья. Более того, у них нет ничего общего. В группе постоянно происходят конфликты, споры и драки. Но в удивительный день во время сильного шторма сильная молния делает из них супергероев и наделяет их сверхвозможностями. Они понятия не имеют, что делать с этими сверхвозможностями. Более того, никто из них не рад своей новой силе, потому что она раскрывает их самые глубокие комплексы и тайны, которые бы они не хотели выставлять напоказ. Например, Келли, озабоченная общественным мнением о себе, получает способность читать чужие мысли, а у Кёртиса появляется способность возвращать прошлое. Ребята просто хотят побыстрее закончить свои исправительные работы и окунуться с головой в обычную жизнь тинейджеров. Но судьба им припасла еще одно задание, ведь после ужасного шторма в городе сверхспособностями стали обладать не только они одни…
Отбросы (Плохие), Сезон 1
Misfits, Season 1
Продолжительность: ~ 00:48:00 мин
Исходник: BDRip 720p
Контейнер: M4V
Видео кодек: AVC
Аудио кодек: AAC
Видео: 1280x720 at 25 fps, x264, ~5500 kbps avg
Аудио #1 : Russian, AAC , 122 Kbps | Новамедиа |
Аудио #2 : Russian, AAC , 141 Kbps | Кубик в Кубе |
Аудио #3 : Russian, AAC , 144 Kbps | MTV |
Аудио #4 : English, AAC , 167 Kbps
Субтитры : Русские, Украинские, Английские

Дорожки #1 и #2 содержат больше количество ненормативной лексики.
Общее
Полное имя : D:\Фильмы\Misfits\Season 1\1-01 Episode 1 (HD).m4v
Формат : MPEG-4
Идентификатор кодека : M4V
Размер файла : 1,94 Гбайт
Продолжительность : 45 м.
Режим общего битрейта : Переменный
Общий поток : 6083 Кбит/сек
Название фильма : Episode 1
Альбом : Misfits, Season 1
Альбом/Исполнитель : Misfits
Часть/Положение : 1
Трек/Положение : 1
Исполнитель : Misfits
Жанр : Drama
Дата записи : UTC 2011-06-20 07:00:00
Дата кодирования : UTC 2012-08-29 10:25:43
Дата пометки : UTC 2012-08-29 10:30:11
Программа кодирования : MkvToMp4 [www.mkvtomp4.ru] version 0.221
Обложка : Yes
tvsh : Misfits
tvnn : E4
tven : 101
tvsn : 1
tves : 1
soal : Misfits, Season 1
sosn : Misfits
desc : Nathan, Kelly, Curtis, Alisha and Simon are a group of misfits with nothing in common except they all have to do community service.
ldes : Nathan, Kelly, Curtis, Alisha and Simon are a group of misfits with nothing in common except they all have to do community service. The group get caught in a freak storm on day one, their lives are quickly changed and they discover they have superpowers.
hdvd : 1
stik : 10
akID : -1
sfID : 0
cnID : 444887927
iTunEXTC : us-tv|TV-14|500|

Видео
Идентификатор : 1
Формат : AVC
Формат/Информация : Advanced Video Codec
Профиль формата : High@L4.1
Параметр CABAC формата : Да
Параметр ReFrames формата : 9 кадров
Идентификатор кодека : avc1
Идентификатор кодека/Информация : Advanced Video Coding
Продолжительность : 45 м.
Битрейт : 5500 Кбит/сек
Максимальный битрейт : 23,7 Мбит/сек
Ширина : 1280 пикселей
Высота : 720 пикселей
Соотношение сторон : 16:9
Режим частоты кадров : Постоянный
Частота кадров : 25,000 кадров/сек
Цветовое пространство : YUV
Субдискретизация насыщенности : 4:2:0
Битовая глубина : 8 бит
Тип развёртки : Прогрессивная
Бит/(Пиксели*Кадры) : 0.239
Размер потока : 1,75 Гбайт (90%)
Заголовок : Misfits (2009) S01E01 - Release for HDCLUB by Pro_Rock_
Библиотека кодирования : x264 core 114 r1900 60ef1f8
Настройки программы : cabac=1 / ref=9 / deblock=1:-3:-3 / analyse=0x3:0x113 / me=umh / subme=9 / psy=1 / psy_rd=1.00:0.00 / mixed_ref=1 / me_range=32 / chroma_me=1 / trellis=1 / 8x8dct=1 / cqm=0 / deadzone=21,11 / fast_pskip=0 / chroma_qp_offset=-2 / threads=18 / sliced_threads=0 / nr=0 / decimate=0 / interlaced=0 / constrained_intra=0 / bframes=6 / b_pyramid=2 / b_adapt=1 / b_bias=0 / direct=1 / weightb=1 / open_gop=0 / weightp=2 / keyint=250 / keyint_min=25 / scenecut=40 / intra_refresh=0 / rc_lookahead=40 / rc=2pass / mbtree=1 / bitrate=5500 / ratetol=1.0 / qcomp=0.60 / qpmin=0 / qpmax=69 / qpstep=4 / cplxblur=20.0 / qblur=0.5 / ip_ratio=1.40 / aq=1:0.80
Язык : English
Дата кодирования : UTC 2012-08-29 10:25:43
Дата пометки : UTC 2012-08-29 10:27:25

Аудио #1
Идентификатор : 2
Формат : AAC
Формат/Информация : Advanced Audio Codec
Профиль формата : LC
Идентификатор кодека : 40
Продолжительность : 45 м.
Вид битрейта : Переменный
Битрейт : 122 Кбит/сек
Максимальный битрейт : 176 Кбит/сек
Каналы : 2 канала
Расположение каналов : Front: L R
Частота : 48,0 КГц
Метод сжатия : С потерями
Размер потока : 39,7 Мбайт (2%)
Заголовок : Новамедиа
Язык : Russian
Дата кодирования : UTC 2012-08-29 10:27:15
Дата пометки : UTC 2012-08-29 10:27:25

Аудио #2
Идентификатор : 3
Формат : AAC
Формат/Информация : Advanced Audio Codec
Профиль формата : LC
Идентификатор кодека : 40
Продолжительность : 45 м.
Вид битрейта : Переменный
Битрейт : 141 Кбит/сек
Максимальный битрейт : 208 Кбит/сек
Каналы : 2 канала
Расположение каналов : Front: L R
Частота : 48,0 КГц
Метод сжатия : С потерями
Размер потока : 45,9 Мбайт (2%)
Заголовок : Кубик в Кубе
Язык : Russian
Дата кодирования : UTC 2012-08-29 10:27:18
Дата пометки : UTC 2012-08-29 10:27:25

Аудио #3
Идентификатор : 4
Формат : AAC
Формат/Информация : Advanced Audio Codec
Профиль формата : LC
Идентификатор кодека : 40
Продолжительность : 45 м.
Вид битрейта : Переменный
Битрейт : 144 Кбит/сек
Максимальный битрейт : 215 Кбит/сек
Каналы : 2 канала
Расположение каналов : Front: L R
Частота : 48,0 КГц
Метод сжатия : С потерями
Размер потока : 46,9 Мбайт (2%)
Заголовок : MTV
Язык : Russian
Дата кодирования : UTC 2012-08-29 10:27:20
Дата пометки : UTC 2012-08-29 10:27:25

Аудио #4
Идентификатор : 5
Формат : AAC
Формат/Информация : Advanced Audio Codec
Профиль формата : LC
Идентификатор кодека : 40
Продолжительность : 45 м.
Вид битрейта : Переменный
Битрейт : 167 Кбит/сек
Максимальный битрейт : 212 Кбит/сек
Каналы : 2 канала
Расположение каналов : Front: L R
Частота : 48,0 КГц
Метод сжатия : С потерями
Размер потока : 54,5 Мбайт (3%)
Заголовок : AC3 2.0 @ 192 kbps
Язык : English
Дата кодирования : UTC 2012-08-29 10:27:23
Дата пометки : UTC 2012-08-29 10:27:25

Текст #1
Идентификатор : 6
Формат : Timed text
Режим смешивания : sbtl
Идентификатор кодека : tx3g
Продолжительность : 44 м.
Вид битрейта : Переменный
Битрейт : 98 бит/сек
Размер потока : 32,2 Кбайт (0%)
Язык : Russian
Дата кодирования : UTC 2012-08-29 10:27:25
Дата пометки : UTC 2012-08-29 10:27:25

Текст #2
Идентификатор : 7
Формат : Timed text
Режим смешивания : sbtl
Идентификатор кодека : tx3g
Продолжительность : 45 м.
Вид битрейта : Переменный
Битрейт : 95 бит/сек
Размер потока : 31,5 Кбайт (0%)
Язык : Ukrainian
Дата кодирования : UTC 2012-08-29 10:27:25
Дата пометки : UTC 2012-08-29 10:27:25

Текст #3
Идентификатор : 8
Формат : Timed text
Режим смешивания : sbtl
Идентификатор кодека : tx3g
Продолжительность : 44 м.
Вид битрейта : Переменный
Битрейт : 68 бит/сек
Размер потока : 22,2 Кбайт (0%)
Язык : English
Дата кодирования : UTC 2012-08-29 10:27:25
Дата пометки : UTC 2012-08-29 10:27:25
Отбросы (Плохие), Сезон 2
Misfits, Season 2
Продолжительность: ~ 00:48:00 мин
Исходник: BDRip-AVC
Видео кодек: H.264
Аудио кодек: AC3
Видео: 1280x720 at 25 fps, x264, ~4 500 Kbps kbps avg
Аудио #1: Russian , AC3 ,192 Kbps | Кубик в Кубе |
Аудио #2: English, AC-3, 192 Kbps
Субтитры : Русские, Английские
Общее
Уникальный идентификатор : 243827720596990178663511590901041465487 (0xB76F82C635BAD198ABBACD24D422088F)
Полное имя : D:\Фильмы\Misfits\Season 2\2-01 Episode 1 (HD).mkv
Формат : Matroska
Версия формата : Version 2
Размер файла : 1,52 Гбайт
Продолжительность : 47 м.
Общий поток : 4594 Кбит/сек
Дата кодирования : UTC 2011-03-16 19:45:05
Программа кодирования : mkvmerge v3.3.0 ('Language') built on Mar 24 2010 14:59:24
Библиотека кодирования : libebml v0.8.0 + libmatroska v0.9.0

Видео
Идентификатор : 1
Формат : AVC
Формат/Информация : Advanced Video Codec
Профиль формата : High@L4.1
Параметр CABAC формата : Да
Параметр ReFrames формата : 5 кадров
Идентификатор кодека : V_MPEG4/ISO/AVC
Продолжительность : 47 м.
Битрейт : 4208 Кбит/сек
Ширина : 1280 пикселей
Высота : 720 пикселей
Соотношение сторон : 16:9
Режим частоты кадров : Постоянный
Частота кадров : 25,000 кадров/сек
Цветовое пространство : YUV
Субдискретизация насыщенности : 4:2:0
Битовая глубина : 8 бит
Тип развёртки : Прогрессивная
Бит/(Пиксели*Кадры) : 0.183
Размер потока : 1,36 Гбайт (90%)
Библиотека кодирования : x264 core 114 r1913 5fd3dce
Настройки программы : cabac=1 / ref=5 / deblock=1:0:0 / analyse=0x3:0x133 / me=umh / subme=7 / psy=1 / psy_rd=1.00:0.00 / mixed_ref=1 / me_range=16 / chroma_me=1 / trellis=1 / 8x8dct=1 / cqm=0 / deadzone=21,11 / fast_pskip=0 / chroma_qp_offset=-2 / threads=12 / sliced_threads=0 / nr=0 / decimate=1 / interlaced=0 / constrained_intra=0 / bframes=3 / b_pyramid=2 / b_adapt=1 / b_bias=0 / direct=1 / weightb=1 / open_gop=0 / weightp=2 / keyint=250 / keyint_min=25 / scenecut=40 / intra_refresh=0 / rc_lookahead=40 / rc=2pass / mbtree=1 / bitrate=4208 / ratetol=1.0 / qcomp=0.60 / qpmin=0 / qpmax=69 / qpstep=4 / cplxblur=20.0 / qblur=0.5 / ip_ratio=1.40 / aq=1:1.00
Default : Да
Forced : Нет

Аудио #1
Идентификатор : 2
Формат : AC-3
Формат/Информация : Audio Coding 3
Расширение режима : CM (complete main)
Параметр Endianness формата : Big
Идентификатор кодека : A_AC3
Продолжительность : 47 м.
Вид битрейта : Постоянный
Битрейт : 192 Кбит/сек
Каналы : 2 канала
Расположение каналов : Front: L R
Частота : 48,0 КГц
Битовая глубина : 16 бит
Метод сжатия : С потерями
Размер потока : 65,0 Мбайт (4%)
Язык : Russian
Default : Да
Forced : Нет

Аудио #2
Идентификатор : 3
Формат : AC-3
Формат/Информация : Audio Coding 3
Расширение режима : CM (complete main)
Параметр Endianness формата : Big
Идентификатор кодека : A_AC3
Продолжительность : 47 м.
Вид битрейта : Постоянный
Битрейт : 192 Кбит/сек
Каналы : 2 канала
Расположение каналов : Front: L R
Частота : 48,0 КГц
Битовая глубина : 16 бит
Метод сжатия : С потерями
Размер потока : 65,0 Мбайт (4%)
Язык : English
Default : Нет
Forced : Нет

Текст #1
Идентификатор : 4
Формат : ASS
Идентификатор кодека : S_TEXT/ASS
Идентификатор кодека/Информация : Advanced Sub Station Alpha
Метод сжатия : Без потерь
Язык : Russian
Default : Нет
Forced : Нет

Текст #2
Идентификатор : 5
Формат : UTF-8
Идентификатор кодека : S_TEXT/UTF8
Идентификатор кодека/Информация : UTF-8 Plain Text
Язык : English
Default : Нет
Forced : Нет
Отбросы (Плохие), Сезон 3
Misfits, Season 3
Продолжительность: ~ 00:48:00 мин
Исходник: WEB-DL 720p
Контейнер: M4V
Видео кодек: AVC
Аудио кодек: AAC
Видео: 1280x720 at 25 fps, x264, ~5500 kbps avg
Аудио #1 : Russian, AAC , 132 Kbps | Кубик в Кубе |
Аудио #2 : English, AAC , 141 Kbps
Субтитры : Русские (все серии), Английские (в сериях 1,3,5)
Общее
Полное имя : D:\Фильмы\Misfits\Season 3\3-01 Episode 1 (HD).m4v
Формат : MPEG-4
Идентификатор кодека : M4V
Размер файла : 1,45 Гбайт
Продолжительность : 47 м.
Режим общего битрейта : Переменный
Общий поток : 4387 Кбит/сек
Название фильма : Episode 1
Альбом : Misfits, Season 3
Альбом/Исполнитель : Misfits
Часть/Положение : 3
Трек/Положение : 1
Исполнитель : Misfits
Жанр : Drama
Дата записи : UTC 2011-12-19 08:00:00
Дата кодирования : UTC 2012-09-08 11:34:01
Дата пометки : UTC 2012-09-08 11:37:01
Программа кодирования : MkvToMp4 [www.mkvtomp4.ru] version 0.221
Обложка : Yes
tvsh : Misfits
tvnn : E4
tven : 301
tvsn : 3
tves : 1
soal : Misfits, Season 3
sosn : Misfits
desc : Rudy gets a rude awakening in his first few days of community service, learning that with the keys to the infamous locker room comes a great deal of running, screaming and, in some instances, killing.
ldes : Rudy gets a rude awakening in his first few days of community service, learning that with the keys to the infamous locker room comes a great deal of running, screaming and, in some instances, killing.
hdvd : 1
stik : 10
akID : -1
sfID : 0
cnID : 490153861
iTunEXTC : us-tv|TV-14|500|

Видео
Идентификатор : 1
Формат : AVC
Формат/Информация : Advanced Video Codec
Профиль формата : Baseline@L3.1
Параметр CABAC формата : Нет
Параметр ReFrames формата : 1 кадр
Параметр GOP формата : M=1, N=12
Идентификатор кодека : avc1
Идентификатор кодека/Информация : Advanced Video Coding
Продолжительность : 47 м.
Битрейт : 4103 Кбит/сек
Максимальный битрейт : 11,2 Мбит/сек
Ширина : 1280 пикселей
Высота : 720 пикселей
Соотношение сторон : 16:9
Режим частоты кадров : Постоянный
Частота кадров : 25,000 кадров/сек
Цветовое пространство : YUV
Субдискретизация насыщенности : 4:2:0
Битовая глубина : 8 бит
Тип развёртки : Прогрессивная
Бит/(Пиксели*Кадры) : 0.178
Размер потока : 1,35 Гбайт (94%)
Язык : English
Дата кодирования : UTC 2012-09-08 11:34:01
Дата пометки : UTC 2012-09-08 11:35:07

Аудио #1
Идентификатор : 2
Формат : AAC
Формат/Информация : Advanced Audio Codec
Профиль формата : LC
Идентификатор кодека : 40
Продолжительность : 47 м.
Вид битрейта : Переменный
Битрейт : 132 Кбит/сек
Максимальный битрейт : 213 Кбит/сек
Каналы : 2 канала
Расположение каналов : Front: L R
Частота : 44,1 КГц
Метод сжатия : С потерями
Размер потока : 45,3 Мбайт (3%)
Заголовок : Кубик в Кубе
Язык : Russian
Дата кодирования : UTC 2012-09-08 11:35:01
Дата пометки : UTC 2012-09-08 11:35:07

Аудио #2
Идентификатор : 3
Формат : AAC
Формат/Информация : Advanced Audio Codec
Профиль формата : LC
Идентификатор кодека : 40
Продолжительность : 47 м.
Вид битрейта : Переменный
Битрейт : 141 Кбит/сек
Максимальный битрейт : 213 Кбит/сек
Каналы : 2 канала
Расположение каналов : Front: L R
Частота : 48,0 КГц
Метод сжатия : С потерями
Размер потока : 47,7 Мбайт (3%)
Заголовок : AC3 2.0 @ 192 kbps
Язык : English
Дата кодирования : UTC 2012-09-08 11:35:04
Дата пометки : UTC 2012-09-08 11:35:07

Текст #1
Идентификатор : 4
Формат : Timed text
Режим смешивания : sbtl
Идентификатор кодека : tx3g
Продолжительность : 46 м.
Вид битрейта : Переменный
Битрейт : 97 бит/сек
Размер потока : 33,1 Кбайт (0%)
Язык : Russian
Дата кодирования : UTC 2012-09-08 11:35:07
Дата пометки : UTC 2012-09-08 11:35:07

Текст #2
Идентификатор : 5
Формат : Timed text
Режим смешивания : sbtl
Идентификатор кодека : tx3g
Продолжительность : 46 м.
Вид битрейта : Переменный
Битрейт : 67 бит/сек
Размер потока : 22,7 Кбайт (0%)
Язык : English
Дата кодирования : UTC 2012-09-08 11:35:07
Дата пометки : UTC 2012-09-08 11:35:07
Отбросы (Плохие), Сезон 4
Misfits, Season 4
Продолжительность: ~ 00:48:00 мин
Исходник: WEB-DLRip 720p
Контейнер: M4V
Видео кодек: AVC
Аудио кодек: AAC
Видео: 960@1280x720 at 25 fps, x264, ~4100 kbps avg
Аудио #1 Russian , AC3, 2.0 ch, 48 kHz, 192 kb/s | Кубик в кубе |
Аудио #2 English , AC3, 2.0 ch, 48 kHz, 192 kb/s

Содержится много не нормативной лексики!
Общее
Уникальный идентификатор : 242808700297979664279475463791940157234 (0xB6AB4131CD3754FFB1D7BF706E233F32)
Полное имя : D:\Фильмы\Misfits\Season 4\4-01 Episode 1 (HD).m4v
Формат : Matroska
Версия формата : Version 2
Размер файла : 1,54 Гбайт
Продолжительность : 46 м.
Общий поток : 4777 Кбит/сек
Дата кодирования : UTC 2012-11-26 17:23:10
Программа кодирования : mkvmerge v5.0.1 ('Es ist Sommer') built on Oct 9 2011 11:55:43
Библиотека кодирования : libebml v1.2.2 + libmatroska v1.3.0

Видео
Идентификатор : 1
Формат : AVC
Формат/Информация : Advanced Video Codec
Профиль формата : Main@L3.1
Параметр CABAC формата : Нет
Параметр ReFrames формата : 2 кадра
Режим смешивания : Header stripping
Идентификатор кодека : V_MPEG4/ISO/AVC
Продолжительность : 46 м.
Битрейт : 4106 Кбит/сек
Ширина : 960 пикселей
Высота : 720 пикселей
Соотношение сторон : 16:9
Режим частоты кадров : Постоянный
Частота кадров : 25,000 кадров/сек
Цветовое пространство : YUV
Субдискретизация насыщенности : 4:2:0
Битовая глубина : 8 бит
Тип развёртки : Прогрессивная
Бит/(Пиксели*Кадры) : 0.238
Размер потока : 1,32 Гбайт (86%)
Язык : English
Default : Да
Forced : Нет
Основные цвета : BT.709
Характеристики трансфера : BT.709
Коэффициенты матрицы : BT.709

Аудио #1
Идентификатор : 2
Формат : AC-3
Формат/Информация : Audio Coding 3
Расширение режима : CM (complete main)
Параметр Endianness формата : Big
Режим смешивания : Header stripping
Идентификатор кодека : A_AC3
Продолжительность : 46 м.
Вид битрейта : Постоянный
Битрейт : 192 Кбит/сек
Каналы : 2 канала
Расположение каналов : Front: L R
Частота : 48,0 КГц
Битовая глубина : 16 бит
Метод сжатия : С потерями
Размер потока : 63,3 Мбайт (4%)
Заголовок : DVO
Язык : Russian
Default : Да
Forced : Нет

Аудио #2
Идентификатор : 3
Формат : AC-3
Формат/Информация : Audio Coding 3
Расширение режима : CM (complete main)
Параметр Endianness формата : Big
Режим смешивания : Header stripping
Идентификатор кодека : A_AC3
Продолжительность : 46 м.
Вид битрейта : Постоянный
Битрейт : 192 Кбит/сек
Каналы : 2 канала
Расположение каналов : Front: L R
Частота : 48,0 КГц
Битовая глубина : 16 бит
Метод сжатия : С потерями
Размер потока : 63,3 Мбайт (4%)
Заголовок : NovaFilm
Язык : Russian
Default : Нет
Forced : Нет

Аудио #3
Идентификатор : 4
Формат : AC-3
Формат/Информация : Audio Coding 3
Расширение режима : CM (complete main)
Параметр Endianness формата : Big
Режим смешивания : Header stripping
Идентификатор кодека : A_AC3
Продолжительность : 46 м.
Вид битрейта : Постоянный
Битрейт : 192 Кбит/сек
Каналы : 2 канала
Расположение каналов : Front: L R
Частота : 48,0 КГц
Битовая глубина : 16 бит
Метод сжатия : С потерями
Размер потока : 63,3 Мбайт (4%)
Язык : English
Default : Нет
Forced : Нет

Текст
Идентификатор : 5
Формат : UTF-8
Идентификатор кодека : S_TEXT/UTF8
Идентификатор кодека/Информация : UTF-8 Plain Text
Язык : English
Default : Нет
Forced : Нет
1 сезон
1: Episode 1
2: Episode 2
3: Episode 3
4: Episode 4
5: Episode 5
6: Episode 6
2 сезон
1: Episode 1
2: Episode 2
3: Episode 3
4: Episode 4
5: Episode 5
6: Episode 6
7: Episode 7
3 сезон
1: Episode 1
2: Episode 2
3: Episode 3
4: Episode 4
5: Episode 5
6: Episode 6
7: Episode 7
8: Episode 8
4 сезон
1: Episode 1
2: Episode 2
3: Episode 3
4: Episode 4
5: Episode 5
6: Episode 6
7: Episode 7
8: Episode 8

Время раздачи: 16.00-24.00
[NNM-Club.ru]_Misfits.torrent
 Торрент: Платиновая раздача  Зарегистрирован
 
Скачать


 Зарегистрирован:   23 Дек 2012 19:00:32
 Размер:   46 GB  (
 Рейтинг:   4,9 (Голосов: 193)
 Поблагодарили:   562
 Проверка:   Оформление проверено модератором 23 Дек 2012 23:53:02
Как cкачать  ·  Как раздать  ·  Правильно оформить  ·  Поднять ратио!  
swslive
Стаж: 7 лет 8 мес.
Сообщений: 5
Ratio: 1,888
100%
ukraine.gif
Классный сериал!
romlazo
Стаж: 7 лет 2 мес.
Сообщений: 56
Ratio: 1,121
100%
Гадкость бл*я до тошнотиков, но посмотрел весь. Не качайте! Ничего классного!
Novel86
Стаж: 7 лет 2 мес.
Сообщений: 8
Ratio: 57,349
100%
Это типо..:
-вы продали нам пропавшую колбасу!
-несите, поменяем.
-а мы ее съели!):
****
гг:)

спасибо за раздачу!)
ToniSoprano
Стаж: 6 лет 1 мес.
Сообщений: 27
Ratio: 22,233
100%
Поддайте скорости!!!!!pliis!!!!!!!!

Добавлено спустя 2 минуты 14 секунд:

:респект: Очень крутой сериал!!!!!!!!!!!!!! СПАСИБО ЗА РАЗДАЧУ!!!!!!!!!!!!!
aXr
Стаж: 8 лет
Сообщений: 2
Ratio: 0,551
0.94%
3 сезон
нет перевода..... остальные норм.
Seddos
Стаж: 7 лет 5 мес.
Сообщений: 67
Ratio: 72,139
Раздал: 33,48 TB
100%
aXr писал(а): Перейти к сообщению
3 сезон
нет перевода..... остальные норм.

Перевод есть.
kotterpiller
Стаж: 8 лет 5 мес.
Сообщений: 272
Ratio: 8,579
100%
russia.gif
Сериал для малолеток, не более.... Судя по коментам вк, школоло только только, начинают познавать великий Русский мат, увы.
castel
Стаж: 7 лет 7 мес.
Сообщений: 6
Ratio: 73,252
100%
Если Вам не нравится фильмы и сериалы без цензуры, просьба не посещайте данные раздачи, Ваши комментарии никому не нужны.
Серегй 365
Стаж: 6 лет 11 мес.
Сообщений: 13
Ratio: 21,127
100%
Откуда: Russia
russia.gif
Спасибо За раздачу, ВСЕ КУЛЬНО
Wertigont
Стаж: 7 лет 6 мес.
Сообщений: 4
Ratio: 85,736
100%
russia.gif
а почему вы не указываете наличие субтитров?
Seddos
Стаж: 7 лет 5 мес.
Сообщений: 67
Ratio: 72,139
Раздал: 33,48 TB
100%
На 5-й сезон раздача будет обновляться?
ЗЫ ждем октября(
segwese
Стаж: 6 лет 4 мес.
Сообщений: 55
Ratio: 52,516
100%
Перевели как всегда тра ля ля ) , на самом деле название сериала = Стукнутые = )) , ну или переводчики ещё прикалываются = Долбанутые = )))
Seddos
Стаж: 7 лет 5 мес.
Сообщений: 67
Ratio: 72,139
Раздал: 33,48 TB
100%
segwese, как его не назови, сериал отличный, а то бывает, название интригующее, а фильм гумно
Bosman
Стаж: 7 лет 5 мес.
Сообщений: 123
Ratio: 31,879
Раздал: 25,83 TB
Поблагодарили: 9668
100%
ussr.gif
раздайте пожалуйста

_________________
Ж. В. С. С.
Показать сообщения:   
Начать новую тему   Ответить на тему    Торрент-трекер NNM-Club -> Зарубежные сериалы -> Отбросы / Misfits Часовой пояс: GMT + 3
Страница 1 из 1