Интеллигентный торрент-трекер
Нас вместе: 3 825 542 | Новости торрент-трекера | Как тут скачивать? | Как раздавать торренты? | Правила оформления

Скачать бесплатно торрент Сказочная Русь / Вечерний Киев. Серия №2 (2012) SATRip torrent download


 
 
RSS
Начать новую тему   Ответить на тему    Торрент-трекер NNM-Club -> Архив торрентов -> Архив Юмора
Предыдущая тема :: Следующая тема 
Автор Сообщение
svlesin ®
Куратор Документалистики/TV
RG Releasers
 
Стаж: 4 года 10 мес.
Сообщений: 21987
Ratio: 434,065
Поблагодарили: 1520453
100%
Сообщение 23 Ноя 2012 23:18:30  Заголовок сообщения: Сказочная Русь / Вечерний Киев. Серия №2 (2012) SATRip Ответить с цитатой

Сказочная Русь / Вечерний Киев. Серия №2 (2012) SATRip
Режиссер / Телекомпания: 1+1
Русское название: Сказочная Русь
Год выпуска: 2012
Жанр: анимационный сериал, политика

Описание:
Мультфильм выполнен очень качественно, Мы покажем политиков и медийщиков, которые предстанут в виде сказочных персонажей. Рубрика будет абсолютно без цензуры, - приоткрыл завесу Зеленский.

Режиссёр: Владимир Зеленский

В ролях: Владимир Зеленский, Виктор Янукович, Николай Азаров, Виктор Ющенко, Наталия Королевская, Юлия Тимошенко, Володимир Литвин, Савик Шустер, Виталий Кличко ...

Выпущено: Студия Квартал-95

Продолжительность: ~ 00:07:37

Видеокодек: XVID
Битрейт видео: ~2686 kb/s
Размер кадра: 720 x 416
Качество видео: SATRip
Аудиокодек: MP3, 2ch.
Битрейт аудио: 192 kb/s
Формат : AVI
Формат/Информация : Audio Video Interleave
Размер файла : 158 Мбайт
Продолжительность : 7 м. 37 с.
Общий поток : 2888 Кбит/сек
Программа кодирования : VirtualDubModRus 1.5.10.2 (build 2542/release)
Библиотека кодирования : VirtualDubMod build 2542/release

Видео
Идентификатор : 0
Формат : MPEG-4 Visual
Профиль формата : Advanced Simple@L5
Параметр BVOP формата : 1
Параметр QPel формата : Нет
Параметр GMC формата : Без точки перехода
Параметр матрицы формата : Default (H.263)
Идентификатор кодека : XVID
Идентификатор кодека/Подсказка : XviD
Продолжительность : 7 м. 37 с.
Битрейт : 2686 Кбит/сек
Ширина : 720 пикселей
Высота : 416 пикселей
Соотношение сторон : 16:9
Частота кадров : 25,000 кадров/сек
Цветовое пространство : YUV
Субдискретизация насыщенности : 4:2:0
Битовая глубина : 8 бит
Тип развёртки : Прогрессивная
Метод сжатия : С потерями
Бит/(Пиксели*Кадры) : 0.359
Размер потока : 147 Мбайт (93%)
Библиотека кодирования : XviD 1.2.1 (UTC 2008-12-04)

Аудио
Идентификатор : 1
Формат : MPEG Audio
Версия формата : Version 1
Профиль формата : Layer 3
Режим : Joint stereo
Расширение режима : MS Stereo
Идентификатор кодека : 55
Идентификатор кодека/Подсказка : MP3
Продолжительность : 7 м. 37 с.
Вид битрейта : Постоянный
Битрейт : 192 Кбит/сек
Каналы : 2 канала
Частота : 48,0 КГц
Метод сжатия : С потерями
Размер потока : 10,5 Мбайт (7%)
Выравнивание : Соединение по промежуткам
Продолжительность промежутка : 40 мс. (1,00 видеокадр)
Время предзагрузки промежутка : 504 мс.
Библиотека кодирования : LAME3.98.4ЄЄЄЄЄЄЄЄЄЄ
Скриншоты:
Время раздачи: 24/7. До первых 5 скачавших.
Rip by simkanetua
Сказочная Русь на NoNaMe Club
[NNM-Club.ru]_Skazochnaya Rus'. Seriya №02 (2012).avi.torrent
 Торрент: Золотая раздача  Зарегистрирован
 
Примагнититься

Зарегистрируйтесь и скачайте торрент!
 Зарегистрирован:   23 Ноя 2012 23:18:30
 Размер:   158 MB  (
 Рейтинг:   4,9 (Голосов: 151)
 Поблагодарили:   590
 Проверка:   Оформление проверено модератором 23 Ноя 2012 23:18:52
Как cкачать  ·  Как раздать  ·  Правильно оформить  ·  Поднять ратио!  

_________________
Исправил релиз - напиши с ссылкой на него в теле письма. Как правильно написать письмо Модератору!!! Мои Релизы..
Joker
Предупреждений: 1
Предупреждений: 1 
Стаж: 1 год 11 мес.
Сообщений: 1554
Ratio: 47,128
Поблагодарили: 107627
100%
Откуда: зона АТО
Сообщение 23 Ноя 2012 23:34:49  Заголовок сообщения: Ответить с цитатой

hungry cop писал(а): Перейти к сообщению
svlesin
спасибо, огроменное!
laoshe2
Стаж: 3 года 1 мес.
Сообщений: 416
Ratio: 236,349
100%
russia.gif
Сообщение 23 Ноя 2012 23:37:49  Заголовок сообщения: Ответить с цитатой

Вот это ржачка так ржачка!!! Ублажили! :супер!: :смех: :ура: :приветствую:
ovgso1
Стаж: 4 года 7 мес.
Сообщений: 41
Ratio: 1,215
10.21%
ussr.gif
Сообщение 24 Ноя 2012 11:43:49  Заголовок сообщения: Ответить с цитатой

Кажется это у них лучшее!
volokhow
Стаж: 5 лет 8 мес.
Сообщений: 29
Ratio: 11,158
2.78%
ukraine.gif
Сообщение 24 Ноя 2012 15:26:04  Заголовок сообщения: Ответить с цитатой

спасибо!!!!!!! (Thanks!!!!!!)
sovastalin
Стаж: 4 года 3 мес.
Сообщений: 665
Ratio: 52,63
Поблагодарили: 2211
100%
Откуда: Одесса
ukraine.gif
Сообщение 24 Ноя 2012 20:55:39  Заголовок сообщения: Ответить с цитатой

Ха-х! Очередное "гранд мерси" г-ну svlesin'у!!! Не качал, ибо с "трубы" стянул, но "спасиба" от души! С тех пор, как от зомбо-ящика отказался, только здесь беру документалку (и всё такое)! Ещё SkorpionN радует. Спасибо!!!
ЗЫ "Я ничого не пiстiла, я завжди говорила тiлькi правду"!!! :лол:

_________________
Ла-ла-ла-ла-ла ла-ла-ла! (украинская народная песня).
chudo​vasyo​k​
Стаж: 4 года 5 мес.
Сообщений: 6
Ratio: 4,699
98.31%
ukraine.gif
Сообщение 26 Ноя 2012 02:59:56  Заголовок сообщения: Ответить с цитатой

Спасибо огромное.
Как часто выходит?
Сообщение 06 Апр 2013 10:13:07

Топик был перенесен из форума Юмор в форум Архив Юмора

Причина переноса: http://nnm-club.me/forum/viewtopic.php?t=640248
svlesin
Показать сообщения:   
Начать новую тему   Ответить на тему    Торрент-трекер NNM-Club -> Архив торрентов -> Архив Юмора Часовой пояс: GMT + 4
Страница 1 из 1